Action

Beogradski Fantom (2009)

  • Download 5x Faster
  • Download torrent
  • Direct Download
  • Rate this torrent +  |  -
Beogradski Fantom (2009)

Free and Direct Download with Usenet 300GB+ free


Torrent info

Name:Beogradski Fantom (2009)

Total Size: 701.35 MB

Magnet: Magnet Link

Seeds: 0

Leechers: 0

Stream: Watch Online @ Movie4u

Last Updated: 2011-01-10 19:04:16 (Update Now)

Torrent added: 2009-08-22 08:42:15




Torrent Files List


www.yubraca.net (Size: 701.35 MB) (Files: 2)

 www.yubraca.net

  Beogradski Fantom

   Beogradski.fantom.xvid

    beogradski-fantom-plakat-preview.jpg

6.04 KB

    Beogradski Fantom.by www.yubraca.net.avi

701.34 MB
 

Announce URL:

Torrent description

http://www.imdb.com/title/tt0810089/




Beogradski fantom je urbana legenda o momku koji je ukrao beli porse i nocima,ludom vožnjom po centru grada prkosio miliciji, na radost mnogobrojnih gra?ana koji su navijali za njega. U vreme strogog državnog režima ova atrakcija bila je veliki incident i vlasti su žurile da uklone "fantoma" pre nego što se predsednik Josip Broz Tito vrati u zemlju sa samita nesvrstanih u Havani.

Rezija : Jovan Todorovic
Uloge : Milutin Milosevic , Marko Zivic , Nada Macankovic
Zanr : Akcija
Godina : 2009
Trajanje : 82 minuta
Zemlja : Srbija
Jezik : Srpski

Jednog dana, posle posete njegove sestre, Vlada Vasiljevi? je kroz šuber pobegao iz CZ-a. Tri dana kasnije se sam vratio u zatvor. Rekao nam je da je morao da obavi još jednu no?nu vožnju, da policajci ne misle da su ga pobedili. Za kaznu je dobio 30 dana u samici. Posle toga Fantom je bio zatvorenik bez mane. Izašao je na slobodu, ali je stradao u jednoj staroj "ladi", kada je sleteo sa druma kod Požarevca.



Format : AVI
Format/Info : Audio Video Interleave
File size : 701 MiB
Duration : 1h 17mn
Overall bit rate : 1 268 Kbps
Writing application : VirtualDubMod 1.5.10.2 (build 2542/release)
Writing library : VirtualDubMod build 2542/release

Video
Format : MPEG-4 Visual
Format profile : Streaming [email protected]
Format settings, BVOP : Yes
Format settings, QPel : No
Format settings, GMC : No warppoints
Format settings, Matrix : Default
Muxing mode : Packed bitstream
Codec ID : XVID
Codec ID/Hint : XviD
Duration : 1h 17mn
Bit rate : 1 125 Kbps
Width : 640 pixels
Height : 352 pixels
Display aspect ratio : 16/9
Frame rate : 25.000 fps
Resolution : 24 bits
Colorimetry : 4:2:0
Scan type : Progressive
Bits/(Pixel*Frame) : 0.200
Stream size : 622 MiB (89%)
Writing library : XviD 1.2.1 (UTC 2008-12-04)

Audio
Format : MPEG Audio
Format version : Version 1
Format profile : Layer 3
Codec ID : 55
Codec ID/Hint : MP3
Duration : 1h 17mn
Bit rate mode : Constant
Bit rate : 32.0 Kbps
Channel(s) : 2 channels
Sampling rate : 44.1 KHz
Resolution : 16 bits
Stream size : 72.2 MiB (10%)
Alignment : Aligned on interleaves
Interleave, duration : 26 ms (0.65 video frame)
Interleave, preload duration : 520 ms
Writing library : LAME3.90.3ªªªªªªª

related torrents

Torrent name

health leech seeds Size

Beogradski Fantom

0 0 701.00 MB 0

Beogradski Fantom xvid avi

0 0 701.00 MB 0
 

comments (0)

Main Menu