Action

B T K 2008 STV DVDRip XviD LUSO

  • Download 5x Faster
  • Download torrent
  • Direct Download
  • Rate this torrent +  |  -
B T K 2008 STV DVDRip XviD LUSO

Free and Direct Download with Usenet.nl 300GB+ free


Torrent info

Name:B T K 2008 STV DVDRip XviD LUSO

Total Size: 724.27 MB

Magnet: Magnet Link

Seeds: 0

Leechers: 0

Stream: Watch Online @ Movie4u

Last Updated: 2010-09-29 16:25:29 (Update Now)

Torrent added: 2009-08-22 08:31:54





Torrent Files List


luso-btk.rar (Size: 724.27 MB) (Files: 53)

 luso-btk.rar

14.31 MB

 luso-btk.sfv

3.62 KB

 luso-btk.r48

10.30 MB

 luso-btk.r47

14.31 MB

 luso-btk.r46

14.31 MB

 luso-btk.r45

14.31 MB

 luso-btk.r44

14.31 MB

 luso-btk.r43

14.31 MB

 luso-btk.r42

14.31 MB

 luso-btk.r41

14.31 MB

 luso-btk.r39

14.31 MB

 luso-btk.r40

14.31 MB

 luso-btk.r38

14.31 MB

 luso-btk.r37

14.31 MB

 luso-btk.r36

14.31 MB

 luso-btk.r35

14.31 MB

 luso-btk.r34

14.31 MB

 luso-btk.r32

14.31 MB

 luso-btk.r33

14.31 MB

 luso-btk.r31

14.31 MB

 luso-btk.r29

14.31 MB

 luso-btk.r30

14.31 MB

 luso-btk.r27

14.31 MB

 luso-btk.r28

14.31 MB

 luso-btk.r25

14.31 MB

 luso-btk.r26

14.31 MB

 luso-btk.r23

14.31 MB

 luso-btk.r24

14.31 MB

 luso-btk.r21

14.31 MB

 luso-btk.r22

14.31 MB

 luso-btk.r19

14.31 MB

 luso-btk.r20

14.31 MB

 luso-btk.r17

14.31 MB

 luso-btk.r18

14.31 MB

 luso-btk.r16

14.31 MB

 luso-btk.r15

14.31 MB

 luso-btk.r13

14.31 MB

 luso-btk.r14

14.31 MB

 luso-btk.r12

14.31 MB

 luso-btk.r11

14.31 MB

 luso-btk.r10

14.31 MB

 luso-btk.r08

14.31 MB

 luso-btk.r09

14.31 MB

 luso-btk.r06

14.31 MB

 luso-btk.r07

14.31 MB

 luso-btk.r05

14.31 MB

 luso-btk.r03

14.31 MB

 luso-btk.r04

14.31 MB

 luso-btk.r01

14.31 MB

 luso-btk.r02

14.31 MB

 luso-btk.r00

14.31 MB

 luso-btk.nfo

7.13 KB

 sample

  luso-btk-sample.avi

13.01 MB
 

Announce URL: http://lightingspeeds.com/announce.php?passkey=eb730cd995cb224de74ae6be1803f993

Torrent description

Inspired by the real-life serial Killer, B.T.K is the gruesome story of
Dennis L. Rader, a murderer who systematically tortured and killed his
victims for over two decades while evading the police for over 30 years.
Living a seemingly normal life as a husband, father, security officer and
church president, Rader?s unquenchable thirst for blood ultimately led him
to commit the most horrific crimes imaginable. Shocking and full of suspense,
B.T.K is a grisly journey into the nightmarish world of a deranged killer.
-------------------------------------------------------------------------------
Type : Movie
Format : AVI
Format/Info : Audio Video Interleave
File size : 737 MiB
Duration : 1h 25mn
Source : Dvd R5
Genre : Horror
IMDB Link : http://www.imdb.com/title/tt1176095/
Rating : 6.9/10

Video
Format : MPEG-4 Visual
Format profile : Streaming [email protected]
Format settings, BVOP : Yes
Format settings, QPel : No
Format settings, GMC : No warppoints
Format settings, Matrix : Default
Muxing mode : Packet Bitstream
Codec ID : XVID
Codec ID/Hint : XviD
Duration : 1h 25mn
Bit rate : 1068 Kbps
Width : 624 pixels
Height : 320 pixels
Display aspect ratio : 1.950
Frame rate : 23.976 fps
Resolution : 8 bits
Colorimetry : 4:2:0
Scan type : Progressive
Bits/(Pixel*Frame) : 0.223
Stream size : 653 MiB (89%)

Audio
Format : MPEG Audio
Format version : Version 1
Format profile : Layer 3
Codec ID : 55
Codec ID/Hint : MP3
Duration : 1h 25mn
Bit rate mode : Constant
Bit rate : 128 Kbps
Minimum bit rate : 128 Kbps
Channel(s) : 2 channels
Sampling rate : 48.0 KHz
Resolution : 16 bits
Stream size : 78.3 MiB (11%)
Alignment : Aligned on interleaves
Interleave, duration : 42 ms (1.00 video frame)
Interleave, preload duration : 504 ms
Writing library : LAME3.97
Encoding settings : CBR

http://lightingspeeds.com

related torrents

Torrent name

health leech seeds Size
 

comments (0)

Main Menu