Action

The Casino Job 2009 DVDRip XviD GuySmiley [

  • Download 5x Faster
  • Download torrent
  • Direct Download
  • Rate this torrent +  |  -
The Casino Job 2009 DVDRip XviD GuySmiley [

Free and Direct Download with Usenet 300GB+ free


Torrent info

Name:The Casino Job 2009 DVDRip XviD GuySmiley [

Total Size: 706.29 MB

Magnet: Magnet Link

Seeds: 0

Leechers: 1

Stream: Watch Online @ Movie4u

Last Updated: 2010-10-03 15:32:33 (Update Now)

Torrent added: 2009-08-22 08:25:33




Torrent Files List


The Casino Job 2009 DVDRip XviD-GuySmiley.sfv (Size: 706.29 MB) (Files: 52)

 The Casino Job 2009 DVDRip XviD-GuySmiley.sfv

7.01 KB

 The Casino Job 2009 DVDRip XviD-GuySmiley.rar

14.31 MB

 The Casino Job 2009 DVDRip XviD-GuySmiley.r48

5.33 MB

 The Casino Job 2009 DVDRip XviD-GuySmiley.r47

14.31 MB

 The Casino Job 2009 DVDRip XviD-GuySmiley.r46

14.31 MB

 The Casino Job 2009 DVDRip XviD-GuySmiley.r45

14.31 MB

 The Casino Job 2009 DVDRip XviD-GuySmiley.r44

14.31 MB

 The Casino Job 2009 DVDRip XviD-GuySmiley.r43

14.31 MB

 The Casino Job 2009 DVDRip XviD-GuySmiley.r42

14.31 MB

 The Casino Job 2009 DVDRip XviD-GuySmiley.r41

14.31 MB

 The Casino Job 2009 DVDRip XviD-GuySmiley.r40

14.31 MB

 The Casino Job 2009 DVDRip XviD-GuySmiley.r39

14.31 MB

 The Casino Job 2009 DVDRip XviD-GuySmiley.r38

14.31 MB

 The Casino Job 2009 DVDRip XviD-GuySmiley.r37

14.31 MB

 The Casino Job 2009 DVDRip XviD-GuySmiley.r36

14.31 MB

 The Casino Job 2009 DVDRip XviD-GuySmiley.r35

14.31 MB

 The Casino Job 2009 DVDRip XviD-GuySmiley.r34

14.31 MB

 The Casino Job 2009 DVDRip XviD-GuySmiley.r33

14.31 MB

 The Casino Job 2009 DVDRip XviD-GuySmiley.r32

14.31 MB

 The Casino Job 2009 DVDRip XviD-GuySmiley.r31

14.31 MB

 The Casino Job 2009 DVDRip XviD-GuySmiley.r30

14.31 MB

 The Casino Job 2009 DVDRip XviD-GuySmiley.r29

14.31 MB

 The Casino Job 2009 DVDRip XviD-GuySmiley.r28

14.31 MB

 The Casino Job 2009 DVDRip XviD-GuySmiley.r27

14.31 MB

 The Casino Job 2009 DVDRip XviD-GuySmiley.r26

14.31 MB

 The Casino Job 2009 DVDRip XviD-GuySmiley.r25

14.31 MB

 The Casino Job 2009 DVDRip XviD-GuySmiley.r24

14.31 MB

 The Casino Job 2009 DVDRip XviD-GuySmiley.r23

14.31 MB

 The Casino Job 2009 DVDRip XviD-GuySmiley.r22

14.31 MB

 The Casino Job 2009 DVDRip XviD-GuySmiley.r21

14.31 MB

 The Casino Job 2009 DVDRip XviD-GuySmiley.r20

14.31 MB

 The Casino Job 2009 DVDRip XviD-GuySmiley.r19

14.31 MB

 The Casino Job 2009 DVDRip XviD-GuySmiley.r18

14.31 MB

 The Casino Job 2009 DVDRip XviD-GuySmiley.r17

14.31 MB

 The Casino Job 2009 DVDRip XviD-GuySmiley.r16

14.31 MB

 The Casino Job 2009 DVDRip XviD-GuySmiley.r15

14.31 MB

 The Casino Job 2009 DVDRip XviD-GuySmiley.r14

14.31 MB

 The Casino Job 2009 DVDRip XviD-GuySmiley.r13

14.31 MB

 The Casino Job 2009 DVDRip XviD-GuySmiley.r12

14.31 MB

 The Casino Job 2009 DVDRip XviD-GuySmiley.r11

14.31 MB

 The Casino Job 2009 DVDRip XviD-GuySmiley.r10

14.31 MB

 The Casino Job 2009 DVDRip XviD-GuySmiley.r09

14.31 MB

 The Casino Job 2009 DVDRip XviD-GuySmiley.r08

14.31 MB

 The Casino Job 2009 DVDRip XviD-GuySmiley.r07

14.31 MB

 The Casino Job 2009 DVDRip XviD-GuySmiley.r06

14.31 MB

 The Casino Job 2009 DVDRip XviD-GuySmiley.r05

14.31 MB

 The Casino Job 2009 DVDRip XviD-GuySmiley.r04

14.31 MB

 The Casino Job 2009 DVDRip XviD-GuySmiley.r03

14.31 MB

 The Casino Job 2009 DVDRip XviD-GuySmiley.r02

14.31 MB

 The Casino Job 2009 DVDRip XviD-GuySmiley.r01

14.31 MB

 The Casino Job 2009 DVDRip XviD-GuySmiley.r00

14.31 MB

 The Casino Job 2009 DVDRip XviD-GuySmiley.nfo

4.02 KB
 

Announce URL: http://tracker.openbittorrent.com/announce

Torrent description

General
-----------
Format : AVI
Format/Info : Audio Video Interleave
File size : 699 MiB
Duration : 1h 21mn
Overall bit rate : 1 197 Kbps
Writing application : VirtualDubMod 1.5.10.2 (build 2540/release)
Writing library : VirtualDubMod build 2540/release

Video
Format : MPEG-4 Visual
Format profile : Streaming [email protected]
Format settings, BVOP : Yes
Format settings, QPel : No
Format settings, GMC : No warppoints
Format settings, Matrix : Default
Muxing mode : Packed bitstream
Codec ID : XVID
Codec ID/Hint : XviD
Duration : 1h 21mn
Bit rate : 1 036 Kbps
Width : 512 pixels
Height : 384 pixels
Display aspect ratio : 4/3
Frame rate : 23.976 fps
Resolution : 24 bits
Colorimetry : 4:2:0
Scan type : Progressive
Bits/(Pixel*Frame) : 0.220
Stream size : 605 MiB (87%)
Writing library : XviD 1.2.1 (UTC 2008-12-04)

Audio
Format : MPEG Audio
Format version : Version 1
Format profile : Layer 3
Codec ID : 55
Codec ID/Hint : MP3
Duration : 1h 21mn
Bit rate mode : Variable
Bit rate : 148 Kbps
Minimum bit rate : 32.0 Kbps
Channel(s) : 2 channels
Sampling rate : 48.0 KHz
Resolution : 16 bits
Stream size : 86.6 MiB (12%)
Alignment : Aligned on interleaves
Interleave, duration : 24 ms (0.58 video frame)
Interleave, preload duration : 517 ms
Writing library : LAME3.97
Encoding settings : VBR (mtrh)
---------------------------------------------------------
AllMovie:http://www.allmovie.com/work/the-casino-job-477473
---------------------------------------------------------
Plot Synopsis:
A vengeful stripper schemes to take a slimy casino owner for
all he's worth, but finds her foolproof plan foiled by a
collaborator with a secret agenda. In Las Vegas money equals
power, and few men have more of both than wealthy casino owner
Barry Kaylin. A thirty-something bachelor who owns four Las
Vegas casinos, Barry lives life to the fullest and never
apologizes to anyone. One night, while anticipating the arrival
of two potential business associated at his sprawling desert
mansion, Barry hires five local dancers to make a big impression.
The proceedings take a dark turn, however, when Barry snorts too
much cocaine over the course of the evening and forces himself on
Jennifer, the youngest of the sultry strippers. Confronted by
police the following day, Barry claims that the sex was consensual.
As a result, the local prosecutor refuses to press charges, and
Barry walks away a free man. But Jennifer isn't willing to let Barry
off so easy, and immediately begins scheming with her four sexy
friends to take him for all he's worth by targeting the crown jewel
of his massive empire - the highly lucrative Crystal Sky Casino.
With the help of two male employees, Jennifer and her friends will
rob the Crystal Sky blind, perhaps even putting Barry out of business
for good. As preparations for the big job get under way, one member
of the team goes rogue. By the time the others catch wind of the secret
agenda, it's already too late, and a notorious hit man emerges to
blow the entire plot sky high. With precious little time to lose,
the remaining members of the team attempt to stay alive long enough
to carry out their cunning plan.

related torrents

Torrent name

health leech seeds Size
 

comments (0)

Main Menu