Action

The Brave One TR EN AC3 DvDRip XviD TLine

  • Download 5x Faster
  • Download torrent
  • Direct Download
  • Rate this torrent +  |  -
The Brave One TR EN AC3 DvDRip XviD TLine

Download FREE And Anonymously


Torrent info

Name:The Brave One TR EN AC3 DvDRip XviD TLine

Total Size: 1.37 GB

Magnet: Magnet Link

Seeds: 0

Leechers: 0

Stream: Watch Full Movie @ Movie4u

Last Updated: 0000-00-00 00:00:00 (Update Now)

Torrent added: 2009-08-22 08:23:01



VPN For Torrents

Torrent Files List


brave.cd1.txt (Size: 1.37 GB) (Files: 103)

 brave.cd1.txt

2.75 KB

 brave.cd2.txt

2.79 KB

 The Brave One.TR-EN AC3.DvDRip.XviD-TLine.cd2

  TLine-tboa.sfv

3.86 KB

  TLine-tboa.r48

728.71 KB

  TLine-tboa.rar

14.31 MB

  TLine-tboa.r47

14.31 MB

  TLine-tboa.r46

14.31 MB

  TLine-tboa.r45

14.31 MB

  TLine-tboa.r43

14.31 MB

  TLine-tboa.r44

14.31 MB

  TLine-tboa.r42

14.31 MB

  TLine-tboa.r41

14.31 MB

  TLine-tboa.r40

14.31 MB

  TLine-tboa.r38

14.31 MB

  TLine-tboa.r39

14.31 MB

  TLine-tboa.r37

14.31 MB

  TLine-tboa.r36

14.31 MB

  TLine-tboa.r35

14.31 MB

  TLine-tboa.r33

14.31 MB

  TLine-tboa.r34

14.31 MB

  TLine-tboa.r32

14.31 MB

  TLine-tboa.r31

14.31 MB

  TLine-tboa.r30

14.31 MB

  TLine-tboa.r28

14.31 MB

  TLine-tboa.r29

14.31 MB

  TLine-tboa.r27

14.31 MB

  TLine-tboa.r26

14.31 MB

  TLine-tboa.r25

14.31 MB

  TLine-tboa.r23

14.31 MB

  TLine-tboa.r24

14.31 MB

  TLine-tboa.r22

14.31 MB

  TLine-tboa.r21

14.31 MB

  TLine-tboa.r20

14.31 MB

  TLine-tboa.r18

14.31 MB

  TLine-tboa.r19

14.31 MB

  TLine-tboa.r17

14.31 MB

  TLine-tboa.r16

14.31 MB

  TLine-tboa.r15

14.31 MB

  TLine-tboa.r13

14.31 MB

  TLine-tboa.r14

14.31 MB

  TLine-tboa.r12

14.31 MB

  TLine-tboa.r11

14.31 MB

  TLine-tboa.r10

14.31 MB

  TLine-tboa.r08

14.31 MB

  TLine-tboa.r09

14.31 MB

  TLine-tboa.r07

14.31 MB

  TLine-tboa.r06

14.31 MB

  TLine-tboa.r05

14.31 MB

  TLine-tboa.r04

14.31 MB

  TLine-tboa.r03

14.31 MB

  TLine-tboa.r02

14.31 MB

  TLine-tboa.r01

14.31 MB

  TLine-tboa.r00

14.31 MB

 The Brave One.TR-EN AC3.DvDRip.XviD-TLine.cd1

  TLine-tboa.sfv

3.78 KB

  TLine-tboa.rar

14.31 MB

  TLine-tboa.r47

12.53 MB

  TLine-tboa.r46

14.31 MB

  TLine-tboa.r45

14.31 MB

  TLine-tboa.r44

14.31 MB

  TLine-tboa.r43

14.31 MB

  TLine-tboa.r42

14.31 MB

  TLine-tboa.r41

14.31 MB

  TLine-tboa.r40

14.31 MB

  TLine-tboa.r39

14.31 MB

  TLine-tboa.r38

14.31 MB

  TLine-tboa.r37

14.31 MB

  TLine-tboa.r36

14.31 MB

  TLine-tboa.r35

14.31 MB

  TLine-tboa.r34

14.31 MB

  TLine-tboa.r33

14.31 MB

  TLine-tboa.r32

14.31 MB

  TLine-tboa.r31

14.31 MB

  TLine-tboa.r30

14.31 MB

  TLine-tboa.r29

14.31 MB

  TLine-tboa.r27

14.31 MB

  TLine-tboa.r28

14.31 MB

  TLine-tboa.r26

14.31 MB

  TLine-tboa.r25

14.31 MB

  TLine-tboa.r24

14.31 MB

  TLine-tboa.r23

14.31 MB

  TLine-tboa.r22

14.31 MB

  TLine-tboa.r21

14.31 MB

  TLine-tboa.r20

14.31 MB

  TLine-tboa.r19

14.31 MB

  TLine-tboa.r18

14.31 MB

  TLine-tboa.r17

14.31 MB

  TLine-tboa.r16

14.31 MB

  TLine-tboa.r15

14.31 MB

  TLine-tboa.r14

14.31 MB

  TLine-tboa.r13

14.31 MB

  TLine-tboa.r12

14.31 MB

  TLine-tboa.r11

14.31 MB

  TLine-tboa.r10

14.31 MB

  TLine-tboa.r09

14.31 MB

  TLine-tboa.r08

14.31 MB

  TLine-tboa.r07

14.31 MB

  TLine-tboa.r06

14.31 MB

  TLine-tboa.r05

14.31 MB

  TLine-tboa.r04

14.31 MB

  TLine-tboa.r03

14.31 MB

  TLine-tboa.r02

14.31 MB

  TLine-tboa.r01

14.31 MB

  TLine-tboa.r00

14.31 MB
 

Announce URL: http://a.tracker.thepiratebay.org:80/announce

Torrent description

http://www.imdb.com/title/tt0476964/

TLine



Ripper : 17mayis
Format : AVI
Format/Info : Audio Video Interleave
File size : 699 MiB
Duration : 55mn 4s
Overall bit rate : 1775 Kbps
Writing application : VirtualDubMod 1.5.4.1 (build 2178/release)
Writing library : VirtualDubMod build 2178/release
IAS1 : English / English
IAS2 : Turkish / Turkish

Video
Format : MPEG-4 Visual
Format profile : Streaming [email protected]
Format settings, BVOP : Yes
Format settings, QPel : No
Format settings, GMC : No warppoints
Format settings, Matrix : Custom
Codec ID : XVID
Codec ID/Hint : XviD
Duration : 55mn 4s
Bit rate : 998 Kbps
Width : 720 pixels
Height : 304 pixels
Display aspect ratio : 2.35
Frame rate : 25.000 fps
Resolution : 8 bits
Colorimetry : 4:2:0
Scan type : Progressive
Bits/(Pixel*Frame) : 0.182
Stream size : 393 MiB (56%)
Writing library : XviD 1.2.0.dev47 (UTC 2006-11-01)

Audio #1
Format : AC-3
Format/Info : Audio Coding 3
Codec ID : 2000
Duration : 55mn 4s
Bit rate mode : Constant
Bit rate : 384 Kbps
Channel(s) : 6 channels
Channel positions : Front: L C R, Rear: L R, LFE
Sampling rate : 48.0 KHz
Stream size : 151 MiB (22%)
Alignment : Aligned on interleaves
Interleave, duration : 96 ms (2.40 video frames)
Interleave, preload duration : 96 ms

Audio #2
Format : AC-3
Format/Info : Audio Coding 3
Codec ID : 2000
Duration : 55mn 4s
Bit rate mode : Constant
Bit rate : 384 Kbps
Channel(s) : 6 channels
Channel positions : Front: L C R, Rear: L R, LFE
Sampling rate : 48.0 KHz
Video delay : 26ms
Stream size : 151 MiB (22%)
Alignment : Split accross interleaves
Interleave, duration : 96 ms (2.40 video frames)
Interleave, preload duration : 96 ms

related torrents

Torrent name

health leech seeds Size
 


comments (0)

Main Menu

 

script data-cfasync="false" src="//d2ghscazvn398x.cloudfront.net/?cshgd=690275">