Action

Tank Girl 1995 DVDRIP AVI XVID AC3 5 1 (Terpripken)

  • Download 5x Faster
  • Download torrent
  • Direct Download
  • Rate this torrent +  |  -
Tank Girl 1995 DVDRIP AVI XVID AC3 5 1 (Terpripken)

Anonymous and Free Direct Download 300GB+


Torrent info

Name:Tank Girl 1995 DVDRIP AVI XVID AC3 5 1 (Terpripken)

Total Size: 993.76 MB

Magnet: Magnet Link

Seeds: 0

Leechers: 0

Stream: Watch Online @ Movie4u

Last Updated: 2010-09-29 13:08:03 (Update Now)

Torrent added: 2009-08-22 07:56:19



VPN For Torrents

Torrent Files List


Tank Girl---1995 DVDRIP AVI AC3 5.1 (Terpripken).avi (Size: 993.76 MB) (Files: 1)

 Tank Girl---1995 DVDRIP AVI AC3 5.1 (Terpripken).avi

993.76 MB
 

Announce URL: http://tracker.openbittorrent.com/announce

Torrent description

Tank Girl (Rebecca) and her friends are the only remaining citizens living in the wasteland that is Earth, where all the remaining water is controlled by Water and Power, the mega corporation/government that runs the territory. While incarcerated at W + P, Tank Girl and her new friend Jet Girl break out and steal... a tank and a jet. After meeting some mutant kangaroo/humans, and rescuing her little girl (adopted by her friends), the kangaroos and the girls kick Water and Powers' butt. Written by David Flaherty [email protected]}

The plot revolves around the fact that Tank Girl and her rebel group are attacked by Water & Power, a powerful force that controls the remaining water on a dystopian Earth, led by Kesslee. A young girl named Sam is abducted and the story revolves around TG's quest to save her and seek vengeance against those who killed her crew with the help of Jet Girl, the rippers and Booga, who has a noticeably different personality than in the comics. Written by Anthony Pereyra [email protected]}

Release Date: 31 March 1995 (USA)
Genre: Action | Comedy | Sci-Fi

Directed by
Rachel Talalay

Writing credit
Alan Martin (comic strip)
Jamie Hewlett (comic strip)
Tedi Sarafian (written by)

Cast


Lori Petty ... Tank Girl
Ice-T ... T-Saint
Naomi Watts ... Jet Girl
Don Harvey ... Sgt. Small
Jeff Kober ... Booga
Reg E. Cathey ... Deetee
Scott Coffey ... Donner
Malcolm McDowell ... Kesslee
Stacy Linn Ramsower ... Sam
Ann Cusack ... Sub Girl
Brian Wimmer ... Richard
Iggy Pop ... Rat Face
Dawn Robinson ... Model
Billy L. Sullivan ... Max
James Hong ... Che'tsai


General
Complete name : Tank Girl---1995 DVDRIP AVI AC3 5.1
Format : AVI
Format/Info : Audio Video Interleave
File size : 994 MiB
Duration : 1h 43mn
Overall bit rate : 1338 Kbps

Video
Format : MPEG-4 Visual
Format profile : [email protected]
Format settings, BVOP : No
Format settings, QPel : No
Format settings, GMC : No warppoints
Format settings, Matrix : Default
Codec ID : XVID
Codec ID/Hint : XviD
Duration : 1h 43mn
Bit rate : 1199 Kbps
Width : 640 pixels
Height : 360 pixels
Display aspect ratio : 16/9
Frame rate : 29.970 fps
Original frame rate : 29.969 fps
Resolution : 8 bits
Colorimetry : 4:2:0
Scan type : Progressive
Bits/(Pixel*Frame) : 0.174
Stream size : 890 MiB (90%)
Writing library : Magic0432

Audio
Format : AC-3
Format/Info : Audio Coding 3
Codec ID : 2000
Bit rate mode : Constant
Bit rate : 128 Kbps
Channel(s) : 6 channels
Channel positions : Front: L C R, Rear: L R, LFE
Sampling rate : 48.0 KHz
Stream size : 95.0 MiB (10%)
Alignment : Aligned on interleaves
Interleave, duration : 32 ms (0.96 video frame)


related torrents

Torrent name

health leech seeds Size

Tank Girl (1995)

1 19 806.07 MB 0
 


comments (0)

Main Menu