Action

Taken[2008]DvDrip[HR titl][h33t][husky01]

  • Download 5x Faster
  • Download torrent
  • Direct Download
  • Rate this torrent +  |  -
Taken[2008]DvDrip[HR titl][h33t][husky01]

Free and Direct Download with Usenet 300GB+ free


Torrent info

Name:Taken[2008]DvDrip[HR titl][h33t][husky01]

Total Size: 632.32 MB

Magnet: Magnet Link

Seeds: 1

Leechers: 0

Stream: Watch Online @ Movie4u

Last Updated: 2010-10-11 20:27:18 (Update Now)

Torrent added: 2009-08-22 07:54:17




Torrent Files List


tracked_by_h33t_com.txt (Size: 632.32 MB) (Files: 6)

 tracked_by_h33t_com.txt

0.02 KB

 Taken.jpg

1.20 MB

 Taken HR.txt

1.52 KB

 Taken EN.txt

0.75 KB

 Movie info.txt

2.05 KB

 96 sati.avi

631.11 MB
 

Announce URL: http://www.h33t.com:3310/announce

Torrent description

The seventeen year-old Kim is the pride and joy of her father, the retired agent Bryan Mills that left the secret service to stay near Kim in California. Kim lives with her mother Lenore and her wealthy stepfather Stuart; she convinces the reluctant Bryan to sign an authorization to travel to Paris with her friend Amanda. When they arrive, they share a cab with the stranger Peter and Amanda tells to him that they are alone in Paris. When Bryan succeeds in contacting his daughter, she tells that criminals have just break in the spot and they are kidnapped by an Albanese gang of human trafficking. Bryan promises in the phone to kill the kidnapper of his daughter and immediately travels to Paris to find Kim and chase the criminals.

www.imdb.com/title/tt0936501

General
Complete name : Taken[2008]DvDrip[HR titl][h33t][husky01]
Format : AVI
Format/Info : Audio Video Interleave
File size : 631 MiB
Duration : 1h 33mn
Overall bit rate : 945 Kbps
Writing application : VirtualDubMod 1.5.10.1 (build 2366/release)
Writing library : VirtualDub build 30091/release

Video
Format : MPEG-4 Visual
Format settings, BVOP : Yes
Format settings, QPel : No
Format settings, GMC : No warppoints
Format settings, Matrix : Default (H.263)
Muxing mode : Packed bitstream
Codec ID : DX50
Codec ID/Hint : DivX 5
Duration : 1h 33mn
Bit rate : 807 Kbps
Width : 696 pixels
Height : 284 pixels
Display aspect ratio : 2.673
Frame rate : 23.976 fps
Resolution : 24 bits
Colorimetry : 4:2:0
Scan type : Progressive
Bits/(Pixel*Frame) : 0.170
Stream size : 539 MiB (85%)
Writing library : DivX 6.8.5

Audio
Format : MPEG Audio
Format version : Version 1
Format profile : Layer 3
Codec ID : 55
Codec ID/Hint : MP3
Duration : 1h 33mn
Bit rate mode : Constant
Bit rate : 128 Kbps
Channel(s) : 2 channels
Sampling rate : 48.0 KHz
Resolution : 16 bits
Stream size : 85.5 MiB (14%)
Alignment : Aligned on interleaves
Interleave, duration : 42 ms (1.00 video frame)
Interleave, preload duration : 504 ms

related torrents

Torrent name

health leech seeds Size
 

comments (0)

Main Menu