Action

Tactical Unit Comrades in Arms (DVDr) (nl Subs) Nlt release by Zero Yuy

  • Download 5x Faster
  • Download torrent
  • Direct Download
  • Rate this torrent +  |  -

Torrent info

Name:Tactical Unit Comrades in Arms (DVDr) (nl Subs) Nlt release by Zero Yuy

Total Size: 900.61 MB

Magnet: Magnet Link

Seeds: 2

Leechers: 5

Stream: Watch Online @ Movie4u

Last Updated: 2010-12-27 11:03:38 (Update Now)

Torrent added: 2009-08-22 07:50:28




Torrent Files List


Torrent_downloaded_from_Demonoid.com.txt (Size: 900.61 MB) (Files: 5)

 Torrent_downloaded_from_Demonoid.com.txt

0.05 KB

 NFO.txt

1.97 KB

 Tactical Unit Comrades in Arms.avi

900.59 MB

 Cover.jpg

24.34 KB

 Important! Torrent Created by Zero Yuy.txt

0.35 KB
 

Announce URL: http://inferno.demonoid.com:3411/announce

Torrent description

http://www.moviemeter.nl/film/55191

Hongkong
Misdaad / Drama

geregisseerd door Wing-cheong Law
met Suet Lam, Samuel Pang en Maggie Siu

De rivalen Wah en Maggie hebben beiden de leiding over de laatste politieoperatie, voordat hun teams uit elkaar gehaald worden. Zij gaan op zoek naar een aantal overvallers die zich verborgen houden in de bergen. Tijdens de operatie worden ze aangevallen door de overvallers, als ze proberen de levens van hun teamgenoten te redden. Dit is ongetwijfeld de grootste uitdaging in hun hele leven. Zullen Wah en Maggie bereid zijn hun rivaliteit opzij te zetten en de opdracht te voltooien?

General
Format : AVI
Format/Info : Audio Video Interleave
File size : 901 MiB
Duration : 1h 30mn
Overall bit rate : 1 386 Kbps
Writing application : VirtualDubMod 1.5.4.1 (build 2178/release)
Writing library : VirtualDubMod build 2178/release

Video
Format : MPEG-4 Visual
Format profile : Streaming [email protected]
Format settings, BVOP : Yes
Format settings, QPel : No
Format settings, GMC : No warppoints
Format settings, Matrix : Custom
Codec ID : XVID
Codec ID/Hint : XviD
Duration : 1h 30mn
Bit rate : 934 Kbps
Width : 608 pixels
Height : 352 pixels
Display aspect ratio : 16/9
Frame rate : 23.976 fps
Resolution : 24 bits
Colorimetry : 4:2:0
Scan type : Progressive
Bits/(Pixel*Frame) : 0.182
Stream size : 607 MiB (67%)
Writing library : XviD 1.2.1 (UTC 2008-12-04)

Audio
Format : AC-3
Format/Info : Audio Coding 3
Codec ID : 2000
Duration : 1h 30mn
Bit rate mode : Constant
Bit rate : 448 Kbps
Channel(s) : 6 channels
Channel positions : Front: L C R, Surround: L R, LFE
Sampling rate : 48.0 KHz
Stream size : 289 MiB (32%)
Alignment : Split accross interleaves
Interleave, duration : 97 ms (2.32 video frames)
Interleave, preload duration : 96 ms
Language : Chinese
Subtitles : Dutch

Brougth to you by Nlt Release @

http://nlt.ons-forum.nl

related torrents

Torrent name

health leech seeds Size
 


comments (0)

Main Menu