Action

Swordfish 2001 {DvDRiP Xvid} [1337x][blackjesus]

  • Download 5x Faster
  • Download torrent
  • Direct Download
  • Rate this torrent +  |  -
Swordfish 2001 {DvDRiP Xvid} [1337x][blackjesus]

Anonymous and Direct Download 300GB+ free


Torrent info

Name:Swordfish 2001 {DvDRiP Xvid} [1337x][blackjesus]

Total Size: 702.09 MB

Magnet: Magnet Link

Seeds: 1

Leechers: 3

Stream: Watch Online @ Movie4u

Last Updated: 2011-03-29 10:15:24 (Update Now)

Torrent added: 2009-08-22 07:48:30




Torrent Files List


1337x.org.txt (Size: 702.09 MB) (Files: 5)

 1337x.org.txt

0.02 KB

 INFO.txt

3.09 KB

 BlAcKjEsUs.txt

0.30 KB

 SwordT.jpg

110.45 KB

 Swordfish.avi

701.97 MB
 

Announce URL: http://genesis.1337x.org:1337/announce

Torrent description

Swordfish (2001)







http://www.youtube.com/watch?v=yxK0r2ORG9Y
^^Trailer^^

http://www.imdb.com/title/tt0244244/
^^IMDB^^


Release Date: 27 July 2001 (UK)
Genre: Action | Thriller | Crime
Tagline: Log on. Hack in. Go anywhere. Steal everything.
Audio: ENGLISH


When the DEA shut down its dummy corporation operation codenamed SWORDFISH in 1986, they had generated $400 million which they let sit around; fifteen years of compound interest has swelled it to $9.5 billion. A covert counter-terrorist unit called Black Cell, headed by the duplicitious and suave Gabriel Shear, wants the money to help finance their raise-the-stakes vengeance war against international terrorism, but it's all locked away behind super-encryption. He brings in convicted hacker Stanley Jobson, who only wants to see his daughter Holly again but can't afford the legal fees, to slice into the government mainframes and get the money.


Video
Format : MPEG-4 Visual
Format profile : Streaming [email protected]
Format settings, BVOP : Yes
Format settings, QPel : No
Format settings, GMC : No warppoints
Format settings, Matrix : Default (H.263)
Muxing mode : Packed bitstream
Codec ID : XVID
Codec ID/Hint : XviD
Duration : 1h 35mn
Bit rate : 908 Kbps
Width : 640 pixels
Height : 352 pixels
Display aspect ratio : 16/9
Frame rate : 25.000 fps
Resolution : 24 bits
Colorimetry : 4:2:0
Scan type : Progressive
Bits/(Pixel*Frame) : 0.161
Stream size : 618 MiB (88%)
Writing library : XviD 1.2.1 (UTC 2008-12-04)

Audio
Format : MPEG Audio
Format version : Version 1
Format profile : Layer 3
Codec ID : 55
Codec ID/Hint : MP3
Duration : 1h 35mn
Bit rate mode : Variable
Bit rate : 110 Kbps
Channel(s) : 2 channels
Sampling rate : 48.0 KHz
Resolution : 16 bits
Stream size : 74.9 MiB (11%)
Alignment : Aligned on interleaves
Interleave, duration : 24 ms (0.60 video frame)
Interleave, preload duration : 359 ms




related torrents

Torrent name

health leech seeds Size
 


comments (0)

Main Menu