Action

Superman Returns 2006 German DL 1080p BluRay x264 CRiSP

  • Download 5x Faster
  • Download torrent
  • Direct Download
  • Rate this torrent +  |  -


Torrent info

Name:Superman Returns 2006 German DL 1080p BluRay x264 CRiSP

Total Size: 12.71 GB

Magnet: Magnet Link

Seeds: 0

Leechers: 0

Stream: Watch Online @ Movie4u

Last Updated: 2011-01-08 12:50:16 (Update Now)

Torrent added: 2009-08-22 07:45:19



VPN For Torrents

Torrent Files List


Superman.Returns.2006.German.DL.1080p.BluRay.x264-CRiSP.mkv (Size: 12.71 GB) (Files: 1)

 Superman.Returns.2006.German.DL.1080p.BluRay.x264-CRiSP.mkv

12.71 GB
 

Announce URL: http://tbunker.dyndns.dk/announce.php

Torrent description


Superman.Returns.2006.German.DL.1080p.BluRay.x264-CRiSP


Superman stammt von einem Planeten, den es schon lange nicht mehr gibt er ist bei Adoptiveltern auf der Kent-Farm in Kansas aufgewachsen. Der junge Kal-El erhält den Namen Clark Kent, und obwohl er unter Menschen lebt, ist er keiner von ihnen: Er hat die Fähigkeit, außergewöhnliche Dinge zu vollbringen, von denen Menschen nur träumen können. Doch um unter ihnen nicht aufzufallen, muss er ein Doppelleben führen: Vom sanftmütigen und unauffälligen Clark Kent verwandelt er sich nur dann in den Mann aus Stahl, wenn ihn ein Hilferuf aus der Welt erreicht.
Inzwischen sind allerdings schon fünf lange Jahre vergangen, seit Superman spurlos verschwunden ist alle Katastrophen musste die Welt ohne seine Hilfe bewältigen. In seiner Abwesenheit ist die Kriminalitätsrate in Metropolis und anderswo angestiegen und zwar auch ohne die Zerstörungswut eines Lex Luthor, der gerade erst aus dem Gefängnis entlassen wurde und sich vornimmt, Supermans technische Überlegenheit für seine eigenen finsteren Zwecke zu nutzen.
Lois Lane, Starreporterin des Daily Planet, ist Supermans große Liebe. Doch nachdem Superman ohne ein Wort verschwunden ist, hat sie ein neues Leben begonnen. Ihr Artikel Warum die Welt auch ohne Superman auskommt brachte ihr sogar den Pulitzer-Preis ein. Heute hat Lois ganz andere Dinge im Kopf: Sie ist mit dem Neffen des Chefredakteurs verlobt und kümmert sich um ihren kleinen Sohn.
Lange Zeit hat Superman seine Bestimmung im Universum gesucht jetzt kehrt er auf die Kent-Farm zurück, denn hier lebt die einzige Familie, die er als seine eigene kennt. Sein Schicksal ist mit Metropolis verbunden, und es reicht nur ein Blick in Lois Augen aus, um zu erkennen, dass dieser Ort mit seinen unvollkommenen, aber letztlich doch aufrichtigen Menschen, seine wahre Heimat ist.
Und weil Lex seinen Plan schon Stunden nach Supermans Rückkehr umsetzt, braucht die Welt ihren Retter dringender denn je.



File size : 12.7 GiB
Duration : 2h 34mn
Overall bit rate : 11.8 Mbps
Encoded date : UTC 2009-02-08 19:39:21
Writing application : mkvmerge v2.4.2 ('Oh My God') built on Jan 18 2009 17:30:28
Writing library : libebml v0.7.7 + libmatroska v0.8.1

Video
ID : 1
Format : AVC
Format/Info : Advanced Video Codec
Format profile : [email protected]
Format settings, CABAC : Yes
Format settings, ReFrames : 5 frames
Muxing mode : Container [email protected]
Codec ID : V_MPEG4/ISO/AVC
Duration : 2h 34mn
Bit rate : 10.3 Mbps
Nominal bit rate : 10.5 Mbps
Width : 1 920 pixels
Height : 800 pixels
Display aspect ratio : 2.400
Frame rate : 23.976 fps
Resolution : 24 bits
Colorimetry : 4:2:0
Scan type : Progressive
Bits/(Pixel*Frame) : 0.279
Stream size : 11.1 GiB (87)
Title : 1920*800 @ 10,5 Mbps -CRiSP
Writing library : x264 core 66 r1093M 1df50b9

Language : English
Audio #1
ID : 2
Format : AC-3
Format/Info : Audio Coding 3
Codec ID : A_AC3
Duration : 2h 34mn
Bit rate mode : Constant
Bit rate : 640 Kbps
Channel(s) : 6 channels
Channel positions : Front: L C R, Surround: L R, LFE
Sampling rate : 48.0 KHz
Stream size : 706 MiB (5)
Title : GERMAN AC3 5.1 @ 640 Kbps

Language : German
Audio #2
ID : 3
Format : AC-3
Format/Info : Audio Coding 3
Codec ID : A_AC3
Duration : 2h 34mn
Bit rate mode : Constant
Bit rate : 640 Kbps
Channel(s) : 6 channels
Channel positions : Front: L C R, Surround: L R, LFE
Sampling rate : 48.0 KHz
Stream size : 706 MiB (5)
Title : ENGLiSH AC3 5.1 @ 640 Kbps
Language : English

Text #1
ID : 4
Format : UTF-8
Codec ID : S_TEXT/UTF8
Codec ID/Info : UTF-8 Plain Text
Title : forced
Language : German

Text #2
ID : 5
Format : UTF-8
Codec ID : S_TEXT/UTF8
Codec ID/Info : UTF-8 Plain Text
Language : German

Text #3
ID : 6
Format : UTF-8
Codec ID : S_TEXT/UTF8
Codec ID/Info : UTF-8 Plain Text
Title : German for the hearing impaired
Language : German

Text #4
ID : 7
Format : UTF-8
Codec ID : S_TEXT/UTF8
Codec ID/Info : UTF-8 Plain Text
Language : English

Text #5
ID : 8
Format : UTF-8
Codec ID : S_TEXT/UTF8
Codec ID/Info : UTF-8 Plain Text
Title : English for the hearing impaired
Language : English

related torrents

Torrent name

health leech seeds Size
 


comments (0)

Main Menu