Action

Supergirl (1984) DVDRip MP3 ENG

  • Download 5x Faster
  • Download torrent
  • Direct Download
  • Rate this torrent +  |  -
Supergirl (1984) DVDRip MP3 ENG

Free and Direct Download with Usenet.nl 300GB+ free


Torrent info

Name:Supergirl (1984) DVDRip MP3 ENG

Total Size: 803.03 MB

Magnet: Magnet Link

Seeds: 0

Leechers: 0

Stream: Watch Online @ Movie4u

Last Updated: 0000-00-00 00:00:00 (Update Now)

Torrent added: 2009-08-22 07:43:29





Torrent Files List


Tracked_by_Demonoid_com.txt (Size: 803.03 MB) (Files: 3)

 Tracked_by_Demonoid_com.txt

0.03 KB

 Supergirl (1984) - DVDRip - MP3 - ENG.nfo

11.07 KB

 Supergirl (1984) - DVDRip - MP3 - ENG.avi

803.02 MB
 

Announce URL:

Torrent description

Supergirl: The movie (1984)


IMDB: http://www.imdb.com/title/tt0088206/
User Rating: 4.0/10 5,466 votes
Release Date: 19 July 1984 (UK)
Genre: Action | Adventure | Comedy | Fantasy | Sci-Fi
Tagline: Her first great adventure.

Plot:
After mistakenly losing the Omegahedron, Argo City's life-sustaining power source, Kara,
Superman's cousin, takes off on a misssion to Earth to retrieve it and save the city.
Upon reaching Earth, she is transformed into Supergirl and carries the alias Linda Lee.
She must deal with the evil ambitions of a wicked witch, Selina (Faye Dunaway), and her
meddling ex-boyfriend Nigel, who plan on ruling the Earth with help from the power of the
Omegahedron, which they found when it crashed landed on Earth. Assisted by Jimmy Olsen and
Lucy Lane, Lois Lane's sister, Supergirl is off on an adventure to save the Earth and Argo City

Cast:
Faye Dunaway ... Selena
Helen Slater ... Kara / Supergirl / Linda Lee
Peter O'Toole ... Zaltar
Mia Farrow ... Alura
Brenda Vaccaro ... Bianca
Peter Cook ... Nigel
Simon Ward ... Zor-El
Marc McClure ... Jimmy Olsen
Hart Bochner ... Ethan
Maureen Teefy ... Lucy Lane


Screenshots:

Supergirl (1984)   DVDRip   MP3   ENG preview 1
Supergirl (1984)   DVDRip   MP3   ENG preview 2
Supergirl (1984)   DVDRip   MP3   ENG preview 3
Supergirl (1984)   DVDRip   MP3   ENG preview 4


Thumbs:

Supergirl (1984)   DVDRip   MP3   ENG preview 0


General
Complete name : Supergirl (1984) - DVDRip - MP3 - ENG.avi
Format : AVI
Source : Pal DVD
File size : 803 MiB
Duration : 1h 59mn
Overal bit rate : 939 Kbps
Language : English

Video
Codec ID : XVID
Duration : 1h 59mn
Bit rate : 820 Kbps
Width : 624 pixels
Height : 272 pixels
Display aspect ratio : 2.25
Frame rate : 25.000 fps
Resolution : 8 bits
Colorimetry : 4:2:0
Scan type : Progressive
Bits/(Pixel*Frame) : 0.193
Stream size : 701 MiB (87%)

Audio
Format : MPEG Audio
Format version : Version 1
Format profile : Layer 3
Codec ID/Hint : MP3
Duration : 1h 59mn
Bit rate mode : Constant
Bit rate : 112 Kbps
Channel(s) : 2 channels
Sampling rate : 44.1 KHz
Resolution : 16 bits
Video delay : 18ms
Stream size : 95.8 MiB (12%)
Writing library : LAME3.98.2


Trackers:

http://inferno.demonoid.com:3406/announce
http://tpb.tracker.thepiratebay.org:80/announce
http://denis.stalker.h3q.com:6969/announce
http://www.torrent-downloads.to:5869/announce
http://vip.tracker.thepiratebay.org/announce


Info Hash: 1840404BCDA13158EF8A728F8A93AC05179EFA50



Enjoy.

related torrents

Torrent name

health leech seeds Size

Supergirl 1984 DVDRip GoGo

2 5 799.80 MB 0
 

comments (0)

Main Menu