Action

Submerged AC3 5,1 DVDRip[Eng]2005

  • Download 5x Faster
  • Download torrent
  • Direct Download
  • Rate this torrent +  |  -
Submerged AC3 5,1 DVDRip[Eng]2005

Free and Direct Download with Usenet.nl 300GB+ free


Torrent info

Name:Submerged AC3 5,1 DVDRip[Eng]2005

Total Size: 1.39 GB

Magnet: Magnet Link

Seeds: 0

Leechers: 0

Stream: Watch Online @ Movie4u

Last Updated: 2016-08-30 05:03:40 (Update Now)

Torrent added: 2009-08-22 07:39:37





Torrent Files List


Torrent downloaded from Demonoid.com.txt (Size: 1.39 GB) (Files: 5)

 Torrent downloaded from Demonoid.com.txt

0.05 KB

 Submerged-AC3-5,1-DVDRip[Eng]2005.txt

2.58 KB

 Submerged-AC3-5,1-DVDRip[Eng]2005.avi

1.39 GB

 Submerged-AC3-5,1-DVDRip[Eng]2005-Front.jpg

2.96 MB

 Submerged-AC3-5,1-DVDRip[Eng]2005-CD1.jpg

303.81 KB
 

tracker

leech seeds
 

Torrent description

http://www.imdb.com/title/tt0416243/

User Rating:3.7/10 - 2,052 votes

Action

Director:Anthony Hickox

Cast:Steven Seagal/Vinnie Jones/Christine Adams/William Hope, and others.

Plot:
Chris Kody, imprisoned member of the US military, is released from prison and reunited with his old team in order to pursue a renegade
scientist. The catch, the scientist has developed mind control technology that can make even your friends into heartless killers...

Info:

Covers included.

General
Complete name : Submerged-AC3-5,1-DVDRip[Eng]2005.avi
Format : AVI
Format/Info : Audio Video Interleave
File size : 1.39 GiB
Duration : 1h 32mn
Overall bit rate : 2 156 Kbps
Writing application : VirtualDubMod 1.5.4.1 (build 2178/release)
Writing library : VirtualDubMod build 2178/release

Video
Format : MPEG-4 Visual
Format profile : Streaming [email protected]
Format settings, BVOP : Yes
Format settings, QPel : No
Format settings, GMC : No warppoints
Format settings, Matrix : Default
Muxing mode : Packed bitstream
Codec ID : XVID
Codec ID/Hint : XviD
Duration : 1h 32mn
Bit rate : 1 700 Kbps
Width : 720 pixels
Height : 400 pixels
Display aspect ratio : 16/9
Frame rate : 25.000 fps
Resolution : 24 bits
Colorimetry : 4:2:0
Scan type : Progressive
Bits/(Pixel*Frame) : 0.236
Stream size : 1.09 GiB (79%)
Writing library : XviD 50

Audio
Format : AC-3
Format/Info : Audio Coding 3
Codec ID : 2000
Duration : 1h 32mn
Bit rate mode : Constant
Bit rate : 448 Kbps
Channel(s) : 6 channels
Channel positions : Front: L C R, Surround: L R, LFE
Sampling rate : 48.0 KHz
Stream size : 295 MiB (21%)
Alignment : Split accross interleaves
Interleave, duration : 80 ms (2.00 video frames)
Interleave, preload duration : 500 ms
Language : English

Enjoy...

related torrents

Torrent name

health leech seeds Size
 

comments (0)

Main Menu