Action

Streets Of Blood[2009]DvDrip LW

  • Download 5x Faster
  • Download torrent
  • Direct Download
  • Rate this torrent +  |  -
Streets Of Blood[2009]DvDrip LW

Free and Direct Download with Usenet.nl 300GB+ free


Torrent info

Name:Streets Of Blood[2009]DvDrip LW

Total Size: 0.99 GB

Magnet: Magnet Link

Seeds: 4

Leechers: 3

Stream: Watch Online @ Movie4u

Last Updated: 2010-09-29 16:44:07 (Update Now)

Torrent added: 2009-08-22 07:38:23





Torrent Files List


Trackers (Size: 0.99 GB) (Files: 5)

 Trackers

  tracked_by_h33t_com.txt

0.02 KB

 Movie

  Streets Of Blood[2009]DvDrip-LW.avi

0.99 GB

 Info

  Movie Info.txt

3.08 KB

  Movie Info.nfo

4.25 KB

 Covers

  Poster.jpg

52.46 KB
 

Announce URL: http://www.h33t.com:3310/announce

Torrent description

) (`-. (` .-') /` ) (`-.
( OO ). `.( OO ),' ( OO ).
(_/. \_)-.-'),-----. ,--. ,--./ .--. .-'),-----.(_/. \_)-.
`.' ( OO' .-. '| |.-') | | | ( OO' .-. ' `.' /
/Y | | | || | OO )| | | |,/ | | | | /
\_) | || || |`-' || |.'.| |_)_) | || | |
.' \_) | | | (| '---.'| | | | | | .' \_)
/ .'. `' '-' '| | | ,'. | `' '-' '/ .'.
'--' '--' `-----' `------' '--' '--' `-----''--' '--'


ßßßßßßßßßßßßßßßßßßßßßßßßßßßßßßßßßßßßßßßßßßßßßßßßßßßßßßßßßßßßßßßßßßßßßß

Û°°°°°°°°°°°°°°°°°°°°°°°°°°°°°°°°°°Û
ÛÛ Streets Of Bloods[2009]DvDrip-LW ÛÛ
Û°°°°°°°°°°°°°°°°°°°°°°°°°°°°°°°°°°Û

File Name : Streets Of Bloods[2009]DvDrip-LW
Type : Movie
Format : AVI
File Size : 0.98 GB
Duration : 01:34:54
Language : English
Source : DvD
Subtitles : None
Genre : Action | Drama | Thriller
IMDB Link : http://www.imdb.com/title/tt1203523/
IMDB Rating : 8.0/10
IMDB Votes : Awaiting 5 Votes
Release Date : 13 July 2009 (USA)
ÜÜÜÜÜÜÜÜÜÜÜÜÜÜÜÜÜÜÜÜÜÜÜÜÜÜÜÜÜÜÜÜÜÜÜÜÜÜÜÜÜÜÜÜÜÜÜÜÜÜÜÜÜÜÜÜÜÜÜÜÜÜÜÜÜÜÜÜÜÜ

Û°°°°°°°°°°°°°°°°°°°°°°°°Û
ÛÛ Video Info ÛÛ
Û°°°°°°°°°°°°°°°°°°°°°°°°Û

Format : MPEG-4 Visual
Format profile : Streaming [email protected]
Format settings, BVOP : Yes
Format settings, QPel : No
Format settings, GMC : No warppoints
Format settings, Matrix : Custom
Codec ID : XVID
Codec ID/Hint : XviD
Duration : 1h 34mn
Bit rate : 1 356 Kbps
Width : 688 pixels
Height : 384 pixels
Display aspect ratio : 16/9
Frame rate : 23.976 fps
Resolution : 24 bits
Colorimetry : 4:2:0
Scan type : Progressive
Bits/(Pixel*Frame) : 0.214
Stream size : 921 MiB (91%)
Writing library : XviD 1.2.1
ÜÜÜÜÜÜÜÜÜÜÜÜÜÜÜÜÜÜÜÜÜÜÜÜÜÜÜÜÜÜÜÜÜÜÜÜÜÜÜÜÜÜÜÜÜÜÜÜÜÜÜÜÜÜÜÜÜÜÜÜÜÜÜÜÜÜÜÜÜÜ

Û°°°°°°°°°°°°°°°°°°°°°°°°Û
ÛÛ Sound Info ÛÛ
Û°°°°°°°°°°°°°°°°°°°°°°°°Û

Format : MPEG Audio
Format version : Version 1
Format profile : Layer 3
Codec ID : 55
Codec ID/Hint : MP3
Duration : 1h 34mn
Bit rate mode : Constant
Bit rate : 128 Kbps
Minimum bit rate : 128 Kbps
Channel(s) : 2 channels
Sampling rate : 48.0 KHz
Resolution : 16 bits
Stream size : 86.9 MiB (9%)
Alignment : Aligned on interleaves
Interleave, duration : 83 ms (2.00 video frames)
Interleave, preload duration : 504 ms
Writing library : LAME3.97
Encoding settings : CBR
ÜÜÜÜÜÜÜÜÜÜÜÜÜÜÜÜÜÜÜÜÜÜÜÜÜÜÜÜÜÜÜÜÜÜÜÜÜÜÜÜÜÜÜÜÜÜÜÜÜÜÜÜÜÜÜÜÜÜÜÜÜÜÜÜÜÜÜÜÜÜ

Û°°°°°°°°°°°°°°°°°°°°°°°°Û
ÛÛ Plot ÛÛ
Û°°°°°°°°°°°°°°°°°°°°°°°°Û

Val Kilmer and rapper 50 Cent star as a pair of
newly minted police partners risking their own
lives to determine whether a fellow officer was
murdered in this gritty crime drama set in New
Orleans in the wake of Hurricane Katrina. The
official report says the officer died during the
chaos of the storm -- one of the most violent
natural disasters the nation's ever seen -- but
the evidence doesn't seem to add up. Sharon Stone
co-stars.

Starring: 50 Cent, Sharon Stone

Director: Charles Winkler
ÜÜÜÜÜÜÜÜÜÜÜÜÜÜÜÜÜÜÜÜÜÜÜÜÜÜÜÜÜÜÜÜÜÜÜÜÜÜÜÜÜÜÜÜÜÜÜÜÜÜÜÜÜÜÜÜÜÜÜÜÜÜÜÜÜÜÜÜÜÜ

related torrents

Torrent name

health leech seeds Size
 

comments (0)

Main Menu