Action

Street Fighter The Legend of Chun Li AC3 5,1 DVDRip[Eng]2009

  • Download 5x Faster
  • Download torrent
  • Direct Download
  • Rate this torrent +  |  -
Street Fighter The Legend of Chun Li AC3 5,1 DVDRip[Eng]2009

Anonymous and Direct Download 300GB+ free


Torrent info

Name:Street Fighter The Legend of Chun Li AC3 5,1 DVDRip[Eng]2009

Total Size: 1.36 GB

Magnet: Magnet Link

Seeds: 7

Leechers: 4

Stream: Watch Online @ Movie4u

Last Updated: 2010-11-27 04:22:48 (Update Now)

Torrent added: 2009-08-22 07:35:49




Torrent Files List


Torrent downloaded from Demonoid.com.txt (Size: 1.36 GB) (Files: 3)

 Torrent downloaded from Demonoid.com.txt

0.05 KB

 Street Fighter-The Legend of Chun-Li -AC3-5,1-DVDRip[Eng]2009.avi

1.36 GB

 Street Fighter-The Legend of Chun-Li -AC3-5,1-DVDRip[Eng]2009-info.txt

2.92 KB
 

Announce URL: http://inferno.demonoid.com:3415/announce

Torrent description

http://www.imdb.com/title/tt0891592/

User Rating:4.2/10 - 3,049 votes

Action,Adventure,Sci-Fi,Thriller

Director:Andrzej Bartkowiak

Cast:Kristin Kreuk/Chris Klein/Neal McDonough/Robin Shou, and others.

Plot:
Based on the popular video game franchise, female fighter Chun Li embarks on a quest for justice.When we meet Chun-Li, she's a child piano prodigy
in Hong Kong, whose mysteriously rich father Xiang (Edmund Chen) bonds with his daughter by teaching her martial arts. One day in her teens, her
dad is kidnapped -- after much household destruction -- by a giant warrior named Balrog (Michael Clarke Duncan, whose approach to the role is to
laugh a lot in basso profundo) and his boss, an international villain named Bison (played by professional villain Neal McDonough)...

Info:

General
Complete name : Street Fighter-The Legend of Chun-Li -AC3-5,1-DVDRip[Eng]2009.avi
Format : AVI
Format/Info : Audio Video Interleave
File size : 1.36 GiB
Duration : 1h 36mn
Overall bit rate : 2 010 Kbps
Writing application : VirtualDubMod 1.5.4.1 (build 2178/release)
Writing library : VirtualDubMod build 2178/release

Video
Format : MPEG-4 Visual
Format profile : Streaming [email protected]
Format settings, BVOP : Yes
Format settings, QPel : No
Format settings, GMC : No warppoints
Format settings, Matrix : Default
Muxing mode : Packed bitstream
Codec ID : XVID
Codec ID/Hint : XviD
Duration : 1h 36mn
Bit rate : 1 555 Kbps
Width : 720 pixels
Height : 320 pixels
Display aspect ratio : 2.25
Frame rate : 23.976 fps
Resolution : 24 bits
Colorimetry : 4:2:0
Scan type : Progressive
Bits/(Pixel*Frame) : 0.281
Stream size : 1.05 GiB (77%)
Writing library : XviD 50

Audio
Format : AC-3
Format/Info : Audio Coding 3
Codec ID : 2000
Duration : 1h 36mn
Bit rate mode : Constant
Bit rate : 448 Kbps
Channel(s) : 6 channels
Channel positions : Front: L C R, Surround: L R, LFE
Sampling rate : 48.0 KHz
Stream size : 309 MiB (22%)
Alignment : Split accross interleaves
Interleave, duration : 83 ms (2.00 video frames)
Interleave, preload duration : 500 ms
Language : English

Enjoy...

related torrents

Torrent name

health leech seeds Size
 


comments (0)

Main Menu