Action

Street Fighter 2009 UNRATED x264 [Blueman] mp4

  • Download 5x Faster
  • Download torrent
  • Direct Download
  • Rate this torrent +  |  -
Street Fighter 2009 UNRATED x264 [Blueman] mp4

Free and Direct Download with Usenet.nl 300GB+ free


Torrent info

Name:Street Fighter 2009 UNRATED x264 [Blueman] mp4

Total Size: 257.46 MB

Magnet: Magnet Link

Seeds: 0

Leechers: 0

Stream: Watch Online @ Movie4u

Last Updated: 2015-09-23 08:17:26 (Update Now)

Torrent added: 2009-08-22 07:32:39





Torrent Files List


Street.Fighter.2009.UNRATED.x264 [Blueman].mp4 (Size: 257.46 MB) (Files: 1)

 Street.Fighter.2009.UNRATED.x264 [Blueman].mp4

257.46 MB
 

tracker

leech seeds
 

Torrent description

Video
ID : 1
Format : AVC
Format/Info : Advanced Video Codec
Codec ID : avc1
Codec ID/Info : Advanced Video Coding
Duration : 1h 37mn
Bit rate mode : Variable
Bit rate : 336 Kbps
Width : 624 pixels
Height : 272 pixels
Display aspect ratio : 2.35
Frame rate mode : Constant
Frame rate : 23.976 fps
Resolution : 24 bits
Colorimetry : 4:2:0
Scan type : Progressive
Bits/(Pixel*Frame) : 0.083
Stream size : 233 MiB (91%)
Writing library : x264

Audio
ID : 2
Format : AAC
Format/Info : Advanced Audio Codec
Format profile : HE-AACv2
Codec ID : 40
Duration : 1h 37mn
Bit rate mode : Variable
Bit rate : 32.3 Kbps
Maximum bit rate : 41.4 Kbps
Channel(s) : 2 channels
Sampling rate : 48.0 KHz
Resolution : 16 bits
Stream size : 22.4 MiB (9%)

related torrents

Torrent name

health leech seeds Size
 

comments (0)

Main Menu