Action

Straight Into Darkness DVDRiP XViD SB0 evolutionbitz net(3)

  • Download 5x Faster
  • Download torrent
  • Direct Download
  • Rate this torrent +  |  -
Straight Into Darkness DVDRiP XViD SB0 evolutionbitz net(3)

Free and Direct Download with Usenet 300GB+ free


Torrent info

Name:Straight Into Darkness DVDRiP XViD SB0 evolutionbitz net(3)

Total Size: 699.80 MB

Magnet: Magnet Link

Seeds: 0

Leechers: 0

Stream: Watch Online @ Movie4u

Last Updated: 2010-10-04 12:59:29 (Update Now)

Torrent added: 2009-08-22 07:31:18




Torrent Files List


Straight Into Darkness DVDRiP XViD SB0.sfv (Size: 699.80 MB) (Files: 3)

 Straight Into Darkness DVDRiP XViD SB0.sfv

0.51 KB

 Straight Into Darkness DVDRiP XViD SB0.avi

699.79 MB

 Straight Into Darkness DVDRiP XViD SB0.nfo

4.57 KB
 

Announce URL: http://evolutionbitz.net/announce.php?passkey=tssespecialtorrentv1byxamsep2007

Torrent description

*******************************************************************************
Straight Into Darkness DVDRiP XViD SB0
*******************************************************************************

-------------------------------------------------------------------------------
General Information
-------------------------------------------------------------------------------
Type.................: Movie
File Validation......: SFV



Movie Information....: http://www.imdb.com/title/tt0287733/

-------------------------------------------------------------------------------
Post Information
-------------------------------------------------------------------------------
Posted by............: SB0

-------------------------------------------------------------------------------
Release Notes
-------------------------------------------------------------------------------
General
Complete name : Straight Into Darkness DVDRiP Xvid SB0.avi
Format : AVI
Format/Info : Audio Video Interleave
File size : 700 MiB
Duration : 1h 30mn
Overall bit rate : 1 079 Kbps
Writing application : VirtualDubMod 1.5.4.1 (build 2178/release)
Writing library : VirtualDubMod build 2178/release

Video
Format : MPEG-4 Visual
Format profile : Streaming [email protected]
Format settings, BVOP : Yes
Format settings, QPel : No
Format settings, GMC : No warppoints
Format settings, Matrix : Custom
Codec ID : XVID
Codec ID/Hint : XviD
Duration : 1h 30mn
Bit rate : 965 Kbps
Width : 608 pixels
Height : 336 pixels
Display aspect ratio : 16/9
Frame rate : 25.000 fps
Resolution : 24 bits
Colorimetry : 4:2:0
Scan type : Progressive
Bits/(Pixel*Frame) : 0.189
Stream size : 626 MiB (89%)
Writing library : XviD 1.2.1 (UTC 2008-12-04)

Audio
Format : MPEG Audio
Format version : Version 1
Format profile : Layer 3
Codec ID : 55
Codec ID/Hint : MP3
Duration : 1h 30mn
Bit rate mode : Variable
Bit rate : 102 Kbps
Minimum bit rate : 112 Kbps
Channel(s) : 2 channels
Sampling rate : 44.1 KHz
Resolution : 16 bits
Stream size : 65.9 MiB (9%)
Alignment : Aligned on interleaves
Interleave, duration : 26 ms (0.65 video frame)
Interleave, preload duration : 535 ms
Writing library : LAME3.98r
Encoding settings : ABR

The horrors of war flow deep in the veins of two young American G.I.s who desert
their platoon during the waning days of World War II in Leatherface: Texas
Chainsaw Massacre 3 director Jeff Burr's chilling tale of terror on the
battlefield. Despite the best efforts of Allied forces, Axis troops still have a
stronghold over many key European outposts. With time quickly running out before
they are attacked by the enemy and branded deserters by their own battalion,
these two desperate soldiers soon team with a deadly band of killer orphans to
take out a key Nazi base and secure yet another victory for the increasingly
powerful Allies.

Cast
(Cast overview, first billed only)

Ryan Francis ... Losey

Scott MacDonald ... Deming
Linda Thorson ... Maria

James LeGros ... Soldier
Daniel Roebuck ... Soldier
David Warner ... Deacon
Liliana Perepelicinic ... Anna
Gabriel Spahiu ... The Lunatic Priest
Rebecca Denton
Nelu Dinu ... Nelu
Mihai Verbintschi ... Buchler (as Mihai Verbintshi)
Ion Bechet ... Sergeant
Iulian Baltatescu
Okan Kayam ... Darius (as Okan Kaian)
Andrei Dumitrescu ... Andrei

Enjoy as always...
SB0



-------------------------------------------------------------------------------
Generated with Cool NFO Creator - http://fly.to/coolbeans
-------------------------------------------------------------------------------

related torrents

Torrent name

health leech seeds Size
 

comments (0)

Main Menu