Action

Stiletto 2008 DVDRIP ZEKTORM

  • Download 5x Faster
  • Download torrent
  • Direct Download
  • Rate this torrent +  |  -
Stiletto 2008 DVDRIP ZEKTORM

Anonymous and Free Direct Download 300GB+


Torrent info

Name:Stiletto 2008 DVDRIP ZEKTORM

Total Size: 707.27 MB

Magnet: Magnet Link

Seeds: 2

Leechers: 2

Stream: Watch Online @ Movie4u

Last Updated: 2010-09-29 16:10:57 (Update Now)

Torrent added: 2009-08-22 07:29:06



VPN For Torrents

Torrent Files List


Subs (Size: 707.27 MB) (Files: 4)

 Subs

  Stiletto.2008.DVDRIP-ZEKTORM.sub

6.95 MB

  Stiletto.2008.DVDRIP-ZEKTORM.idx

93.85 KB

 Stiletto.2008.DVDRIP-ZEKTORM.mp4

700.21 MB

 READ.hlp

12.49 KB
 

Announce URL: http://tv.tracker.prq.to/announce

Torrent description

Title : Stiletto
Year : 2008
Genre : Crime | Drama | Thriller
iMDB URL : http://www.imdb.com/title/tt1027747/

Complete name : Stiletto.2008.DVDRIP-ZEKTORM.mp4
Format : MPEG-4
Format profile : Base Media
Codec ID : isom
File size : 700 MiB
Duration : 1h 39mn
Overall bit rate : 983 Kbps
Subtitles : English, Spanish (Format: VobSub)
Source : DVD NTSC
Encoded date : UTC 2009-02-24 13:08:23

Video
Format : AVC
Format/Info : Advanced Video Codec
Format profile : [email protected]
Format settings, CABAC : Yes
Format settings, ReFrames : 10 frames
Codec ID : avc1
Codec ID/Info : Advanced Video Coding
Duration : 1h 39mn
Bit rate mode : Variable
Bit rate : 896 Kbps
Maximum bit rate : 4469 Kbps
Width : 720 pixels
Height : 352 pixels
Display aspect ratio : 2.479
Frame rate mode : Constant
Frame rate : 29.970 fps
Resolution : 24 bits
Colorimetry : 4:2:0
Scan type : Progressive
Bits/(Pixel*Frame) : 0.118
Stream size : 638 MiB (91%)
Title : Video
Writing library : x264 core 60 r900 a9af942

Audio
Format : AAC
Format/Info : Advanced Audio Codec
Format version : Version 4
Format profile : LC
Format settings, SBR : Yes
Format settings, PS : No
Codec ID : 40
Duration : 1h 39mn
Bit rate mode : Variable
Bit rate : 83.9 Kbps
Maximum bit rate : 106 Kbps
Channel(s) : 2 channels
Channel positions : L R
Sampling rate : 48.0 KHz
Resolution : 16 bits
Stream size : 59.8 MiB (9%)
Title : English
Language : English

related torrents

Torrent name

health leech seeds Size
 


comments (0)

Main Menu