Action

Steven Seagal Against the Dark(2009)DvdScr[

  • Download 5x Faster
  • Download torrent
  • Direct Download
  • Rate this torrent +  |  -
Steven Seagal Against the Dark(2009)DvdScr[

Free and Direct Download with Usenet.nl 300GB+ free


Torrent info

Name:Steven Seagal Against the Dark(2009)DvdScr[

Total Size: 697.19 MB

Magnet: Magnet Link

Seeds: 0

Leechers: 0

Stream: Watch Online @ Movie4u

Last Updated: 2010-11-30 16:33:10 (Update Now)

Torrent added: 2009-08-22 07:28:07





Torrent Files List


poster.jpg (Size: 697.19 MB) (Files: 53)

 poster.jpg

66.98 KB

 atd-mindskin.sfv

4.18 KB

 disable DHT.txt

0.03 KB

 atd-mindskin.r47

10.47 MB

 atd-mindskin.rar

14.31 MB

 atd-mindskin.r45

14.31 MB

 atd-mindskin.r46

14.31 MB

 atd-mindskin.r43

14.31 MB

 atd-mindskin.r44

14.31 MB

 atd-mindskin.r41

14.31 MB

 atd-mindskin.r42

14.31 MB

 atd-mindskin.r39

14.31 MB

 atd-mindskin.r40

14.31 MB

 atd-mindskin.r37

14.31 MB

 atd-mindskin.r38

14.31 MB

 atd-mindskin.r35

14.31 MB

 atd-mindskin.r36

14.31 MB

 atd-mindskin.r33

14.31 MB

 atd-mindskin.r34

14.31 MB

 atd-mindskin.r31

14.31 MB

 atd-mindskin.r32

14.31 MB

 atd-mindskin.r29

14.31 MB

 atd-mindskin.r30

14.31 MB

 atd-mindskin.r27

14.31 MB

 atd-mindskin.r28

14.31 MB

 atd-mindskin.r25

14.31 MB

 atd-mindskin.r26

14.31 MB

 atd-mindskin.r23

14.31 MB

 atd-mindskin.r24

14.31 MB

 atd-mindskin.r21

14.31 MB

 atd-mindskin.r22

14.31 MB

 atd-mindskin.r19

14.31 MB

 atd-mindskin.r20

14.31 MB

 atd-mindskin.r17

14.31 MB

 atd-mindskin.r18

14.31 MB

 atd-mindskin.r15

14.31 MB

 atd-mindskin.r16

14.31 MB

 atd-mindskin.r13

14.31 MB

 atd-mindskin.r14

14.31 MB

 atd-mindskin.r11

14.31 MB

 atd-mindskin.r12

14.31 MB

 atd-mindskin.r09

14.31 MB

 atd-mindskin.r10

14.31 MB

 atd-mindskin.r07

14.31 MB

 atd-mindskin.r08

14.31 MB

 atd-mindskin.r05

14.31 MB

 atd-mindskin.r06

14.31 MB

 atd-mindskin.r03

14.31 MB

 atd-mindskin.r04

14.31 MB

 atd-mindskin.r02

14.31 MB

 atd-mindskin.r01

14.31 MB

 atd-mindskin.r00

14.31 MB

 atd-mindskin.nfo

7.81 KB
 

Announce URL: http://tracker.openbittorrent.com/announce

Torrent description

Year 2009
iMDb Rate 0/10
iMDb URL http://akas.imdb.com/title/tt1194271

Genre Action / Horror / Thriller
Director/s Richard Crudo

Format : AVI
Format/Info : Audio Video Interleave
File size : 690 MiB
Duration : 1h 33mn
Overall bit rate : 1 028 Kbps

Video
Format : MPEG-4 Visual
Format settings, BVOP : Yes
Format settings, QPel : No
Format settings, GMC : No warppoints
Format settings, Matrix : Default
Codec ID : DX50
Codec ID/Hint : DivX 5
Duration : 1h 33mn
Bit rate : 888 Kbps
Width : 560 pixels
Height : 368 pixels
Display aspect ratio : 1.522
Frame rate : 29.969 fps
Resolution : 24 bits
Colorimetry : 4:2:0
Scan type : Progressive
Bits/(Pixel*Frame) : 0.144
Stream size : 596 MiB (86)
Writing library : DivX 6.0.0 (UTC 2005-06-15)

Audio
Format : MPEG Audio
Format version : Version 1
Format profile : Layer 3
Codec ID : 55
Codec ID/Hint : MP3
Duration : 1h 33mn
Bit rate mode : Constant
Bit rate : 128 Kbps
Channel(s) : 2 channels
Sampling rate : 48.0 KHz
Resolution : 16 bits
Stream size : 86.0 MiB (12)
Alignment : Split accross interleaves
Interleave, duration : 33 ms (1.00 video frame)
Interleave, preload duration : 500 ms

~~CAST~~
Steven Seagal, Tanoai Reed, Jenna Harrison

~~PLOT~~
Katana master Tao (Steven Seagal) leads a special ops squad of ex-military vigilantes on a massacre mission, their target: vampires. On the post apocalyptic globe, sucked dry by bloodthirsty vampires, a few remaining survivors are trapped in an infected hospital. Tao is their only hope and he knows the only cure is execution. Now it's time for the last stand against the flesh-eating vampires and there's nothing left to lose but the last of humanity.

related torrents

Torrent name

health leech seeds Size
 

comments (0)

Main Menu