Action

Secret Defense 2008 DVDRIP XviD ZEKTORM

  • Download 5x Faster
  • Download torrent
  • Direct Download
  • Rate this torrent +  |  -
Secret Defense 2008 DVDRIP XviD ZEKTORM

Anonymous and Free Direct Download 300GB+


Torrent info

Name:Secret Defense 2008 DVDRIP XviD ZEKTORM

Total Size: 704.42 MB

Magnet: Magnet Link

Seeds: 4

Leechers: 0

Stream: Watch Online @ Movie4u

Last Updated: 2012-06-19 23:01:16 (Update Now)

Torrent added: 2009-08-22 07:06:12



VPN For Torrents

Torrent Files List


Torrent downloaded from Demonoid.com.txt (Size: 704.42 MB) (Files: 5)

 Torrent downloaded from Demonoid.com.txt

0.05 KB

 Subs

  SD-ZEKTORM.sub

3.35 MB

  SD-ZEKTORM.idx

43.40 KB

 SD-ZEKTORM.avi

701.01 MB

 READ.hlp

11.42 KB
 

Announce URL: http://tracker.torrentbox.com:2710/announce

Torrent description

Format : AVI
File size : 701 MiB
Duration : 1h 36mn
Overall bit rate : 1013 Kbps
Subtitles : English (Format: VobSub)
Source : DVD PAL

Video
Format : MPEG-4 Visual
Format profile : Streaming [email protected]
Codec ID : XVID
Codec ID/Hint : XviD
Duration : 1h 36mn
Bit rate : 892 Kbps
Width : 720 pixels
Height : 304 pixels
Display aspect ratio : 2.35
Frame rate : 25.000 fps
Resolution : 24 bits
Colorimetry : 4:2:0
Scan type : Progressive
Bits/(Pixel*Frame) : 0.163
Stream size : 617 MiB (88%)
Writing library : XviD

Audio
Language : French
Format : MPEG Audio
Format version : Version 1
Format profile : Layer 3
Codec ID : 55
Codec ID/Hint : MP3
Duration : 1h 36mn
Bit rate mode : Variable
Bit rate : 109 Kbps
Minimum bit rate : 128 Kbps
Channel(s) : 2 channels
Sampling rate : 48.0 KHz
Resolution : 16 bits
Stream size : 75.1 MiB (11%)
Writing library : LAME3.98r
Encoding settings : ABR

related torrents

Torrent name

health leech seeds Size
 


comments (0)

Main Menu