Action

Second Coming AC3 5,1 DVDRip[Eng]2009

  • Download 5x Faster
  • Download torrent
  • Direct Download
  • Rate this torrent +  |  -
Second Coming AC3 5,1 DVDRip[Eng]2009

Free and Direct Download with Usenet.nl 300GB+ free


Torrent info

Name:Second Coming AC3 5,1 DVDRip[Eng]2009

Total Size: 1.19 GB

Magnet: Magnet Link

Seeds: 2

Leechers: 2

Stream: Watch Online @ Movie4u

Last Updated: 2010-09-29 16:38:09 (Update Now)

Torrent added: 2009-08-22 07:04:07





Torrent Files List


Torrent downloaded from Demonoid.com.txt (Size: 1.19 GB) (Files: 3)

 Torrent downloaded from Demonoid.com.txt

0.05 KB

 Second Coming-AC3-5,1-DVDRip[Eng]2009.txt

3.20 KB

 Second Coming-AC3-5,1-DVDRip[Eng]2009.avi

1.19 GB
 

Announce URL: http://inferno.demonoid.com:3415/announce

Torrent description

http://www.imdb.com/title/tt0932672/

User Rating:3.3/10 - 57 votes

Actie,Horror

Director:Jose Zambrano Cassella

Cast:Ruben Aleman/Haley Boyle/Michael Ray Davis/Tommy Dennis, and others.

Plot:
Growing up as identical twin sisters, Lora and Ashley Gerritson always had a special psychic bond. When one would feel pain, sorrow or
happiness, the other felt it too. While Lora left the small town that haunted her as a child to become a successful photographer in the
big city, her sister, Ashley, remained to live a simple life working at the local diner with her friend Maggie. Lora's life is suddenly
changed when she begins to receive chilling visions from her sister, Ashley. Something is horribly wrong...she can feel it. Lora knows
she must return to the small town of her childhood to find Ashley. She begins to realize that Barry Drake, a well-loved, upstanding member
of the community, may hold the key to finding Ashley. There is something dark and unsettling about him. As the visions become stronger, she
feels that time is running out. Prepare yourself for a game of cat and mouse that unfolds to reveal the mystery of a sister's "Second Coming".

Info:

General
Complete name : Second Coming-AC3-5,1-DVDRip[Eng]2009.avi
Format : AVI
Format/Info : Audio Video Interleave
File size : 1.19 GiB
Duration : 1h 26mn
Overall bit rate : 1 977 Kbps
Writing application : VirtualDubMod 1.5.4.1 (build 2178/release)
Writing library : VirtualDubMod build 2178/release

Video
Format : MPEG-4 Visual
Format profile : [email protected]
Format settings, BVOP : No
Format settings, QPel : No
Format settings, GMC : No warppoints
Format settings, Matrix : Default
Codec ID : XVID
Codec ID/Hint : XviD
Duration : 1h 26mn
Bit rate : 1 586 Kbps
Width : 720 pixels
Height : 320 pixels
Display aspect ratio : 2.25
Frame rate : 23.976 fps
Resolution : 24 bits
Colorimetry : 4:2:0
Scan type : Progressive
Bits/(Pixel*Frame) : 0.287
Stream size : 978 MiB (80%)
Writing library : XviD 50

Audio
Format : AC-3
Format/Info : Audio Coding 3
Codec ID : 2000
Duration : 1h 26mn
Bit rate mode : Constant
Bit rate : 384 Kbps
Channel(s) : 6 channels
Channel positions : Front: L C R, Surround: L R, LFE
Sampling rate : 48.0 KHz
Stream size : 237 MiB (19%)
Alignment : Split accross interleaves
Interleave, duration : 83 ms (2.00 video frames)
Interleave, preload duration : 500 ms
Language : English

Enjoy...

related torrents

Torrent name

health leech seeds Size
 

comments (0)

Main Menu