Action

Screamers The Hunting 2009 DVDRIP ZEKTORM

  • Download 5x Faster
  • Download torrent
  • Direct Download
  • Rate this torrent +  |  -
Screamers The Hunting 2009 DVDRIP ZEKTORM

Anonymous and Free Direct Download 300GB+


Torrent info

Name:Screamers The Hunting 2009 DVDRIP ZEKTORM

Total Size: 718.88 MB

Magnet: Magnet Link

Seeds: 0

Leechers: 1

Stream: Watch Online @ Movie4u

Last Updated: 2011-02-12 13:12:49 (Update Now)

Torrent added: 2009-08-22 06:59:55



VPN For Torrents

Torrent Files List


Subs (Size: 718.88 MB) (Files: 4)

 Subs

  Screamers.The.Hunting.2009.DVDRIP-ZEKTORM.sub

18.95 MB

  Screamers.The.Hunting.2009.DVDRIP-ZEKTORM.idx

221.80 KB

 Screamers.The.Hunting.2009.DVDRIP-ZEKTORM.mp4

699.71 MB

 READ.hlp

12.79 KB
 

Announce URL: http://tracker.torrentbox.com:2710/announce

Torrent description

Title : Screamers: The Hunting
Year : 2009
Genre : Sci-Fi | Thriller
iMDB URL : http://www.imdb.com/title/tt1214983/

Complete name : Screamers.The.Hunting.2009.DVDRIP-ZEKTORM.mp4
Format : MPEG-4
Format profile : Base Media
Codec ID : isom
File size : 700 MiB
Duration : 1h 34mn
Overall bit rate : 1032 Kbps
Subtitles : English, Spanish, Portuguese, Thai, Chinese, Korean (Format: VobSub)
Source : DVD NTSC
Encoded date : UTC 2009-01-30 00:49:00

Video
Format : AVC
Format/Info : Advanced Video Codec
Format profile : High@L4.1
Format settings, CABAC : Yes
Format settings, ReFrames : 10 frames
Codec ID : avc1
Codec ID/Info : Advanced Video Coding
Duration : 1h 34mn
Bit rate mode : Variable
Bit rate : 944 Kbps
Maximum bit rate : 6600 Kbps
Width : 720 pixels
Height : 480 pixels
Display aspect ratio : 16/9
Frame rate mode : Constant
Frame rate : 23.976 fps
Standard : NTSC
Resolution : 24 bits
Colorimetry : 4:2:0
Scan type : Progressive
Bits/(Pixel*Frame) : 0.114
Stream size : 640 MiB (91%)
Title : Video
Writing library : x264 core 60 r900 a9af942

Audio
Format : AAC
Format/Info : Advanced Audio Codec
Format version : Version 4
Format profile : LC
Format settings, SBR : Yes
Format settings, PS : No
Codec ID : 40
Duration : 1h 34mn
Bit rate mode : Variable
Bit rate : 85.3 Kbps
Maximum bit rate : 111 Kbps
Channel(s) : 2 channels
Channel positions : L R
Sampling rate : 48.0 KHz
Resolution : 16 bits
Stream size : 57.8 MiB (8%)
Title : English
Language : English

Notes : Convert to DVD with Nero

related torrents

Torrent name

health leech seeds Size
 


comments (0)

Main Menu