Action

SANDS OF IWO JIMA 1949[JOHN WAYNE [email protected] H 264 RIP[ENG]

  • Download 5x Faster
  • Download torrent
  • Direct Download
  • Rate this torrent +  |  -

Torrent info

Name:SANDS OF IWO JIMA 1949[JOHN WAYNE [email protected] H 264 RIP[ENG]

Total Size: 687.84 MB

Magnet: Magnet Link

Seeds: 0

Leechers: 0

Stream: Watch Online @ Movie4u

Last Updated: 2011-08-23 04:27:02 (Update Now)

Torrent added: 2009-08-22 06:52:57





Torrent Files List


Torrent downloaded from Demonoid.com-1.txt (Size: 687.84 MB) (Files: 3)

 Torrent downloaded from Demonoid.com-1.txt

0.05 KB

 Noname.jpg

35.34 KB

 MAIN MOVIE.mp4

687.80 MB
 

Announce URL: http://tracker.torrentbox.com:2710/announce

Torrent description

Alone and outnumbered, they had one thing in their favor... the American dream.

Blazing action and spectacle are on the menu as battle-toughened sergeant John M Stryker (John Wayne) prepares a group of soldiers for action in the Pacific.

The men have got their biggest test ahead on Iwo Jima where they have to inch their way up Mt. Suribachi under constant Japanese fire.

Format : MPEG-4
Format profile : Base Media / Version 2
Codec ID : mp42
File size : 688 MiB
Duration : 1h 45mn
Overall bit rate : 916 Kbps
Encoded date : UTC 2009-05-20 21:57:03
Tagged date : UTC 2009-05-21 02:54:10
Writing application : HandBrake 0.9.3 2008112300

Video
Format : AVC
Format/Info : Advanced Video Codec
Format profile : [email protected]
Format settings, CABAC : Yes
Format settings, ReFrames : 3 frames
Codec ID : avc1
Codec ID/Info : Advanced Video Coding
Duration : 1h 45mn
Bit rate mode : Variable
Bit rate : 768 Kbps
Width : 700 pixels
Height : 576 pixels
Display aspect ratio : 1.296
Frame rate mode : Variable
Frame rate : 25.000 fps
Minimum frame rate : 12.500 fps
Maximum frame rate : 25.000 fps
Resolution : 24 bits
Colorimetry : 4:2:0
Scan type : Progressive
Bits/(Pixel*Frame) : 0.076
Stream size : 577 MiB (84%)
Writing library : x264 core 65



Audio
Format : AAC
Format/Info : Advanced Audio Codec
Format version : Version 4
Format profile : LC
Format settings, SBR : No
Codec ID : 40
Duration : 1h 45mn
Bit rate mode : Variable
Bit rate : 144 Kbps
Maximum bit rate : 216 Kbps
Channel(s) : 2 channels
Channel positions : L R
Sampling rate : 48.0 KHz
Resolution : 16 bits
Stream size : 107 MiB (16%)
Language : English
Encoded date : UTC 2009-05-20 21:57:03
Tagged date : UTC 2009-05-21 02:54:03

related torrents

Torrent name

health leech seeds Size
 

comments (0)

Main Menu