Action

S W A T [2003]DVDrip[Eng]AC3[5 1] Atlas47

  • Download 5x Faster
  • Download torrent
  • Direct Download
  • Rate this torrent +  |  -
S W A T [2003]DVDrip[Eng]AC3[5 1] Atlas47

Anonymous and free Direct Download 300GB+


Torrent info

Name:S W A T [2003]DVDrip[Eng]AC3[5 1] Atlas47

Total Size: 1.37 GB

Magnet: Magnet Link

Seeds: 0

Leechers: 0

Stream: Watch Online @ Movie4u

Last Updated: 2016-08-31 01:24:53 (Update Now)

Torrent added: 2009-08-22 06:50:15



VPN For Torrents

Torrent Files List


Torrent_downloaded_from_Demonoid.com.txt (Size: 1.37 GB) (Files: 6)

 Torrent_downloaded_from_Demonoid.com.txt

0.05 KB

 S.W.A.T.sub

4.90 MB

 S.W.A.T.nfo

10.30 KB

 S.W.A.T.idx

60.50 KB

 S.W.A.T.avi

1.37 GB

 Covers

  S.W.A.T.jpg

476.87 KB
 

tracker

leech seeds
 

Torrent description


±±±±±±±±±±±±±±±±±±±±±±±±±±±±±±±±±±±±±±±±±±±±±±±±±±±±±±±±±±±±±±±±±±±±±±±±±±±±±±±±
± ±
± INFO: ±
± ±
± General ±
± Complete name : S.W.A.T. ±
± Genre : Action / Crime ±
± Format : AVI ±
± Format/Info : Audio Video Interleave ±
± File size : 1.37 GiB ±
± Duration : 1h 52mn ±
± Overall bit rate : 1 740 Kbps ±
± Writing application : VirtualDubMod 1.5.4.1 (build 2178/release)±
± Writing library : VirtualDubMod build 2178/release ±
± ±
± Video ±
± Format : MPEG-4 Visual ±
± Format settings, BVOP : Yes ±
± Format settings, QPel : No ±
± Format settings, GMC : No warppoints ±
± Format settings, Matrix : Default ±
± Codec ID : DX50 ±
± Codec ID/Hint : DivX 5 ±
± Duration : 1h 52mn ±
± Bit rate : 1 285 Kbps ±
± Width : 688 pixels ±
± Height : 288 pixels ±
± Display aspect ratio : 2.35 ±
± Frame rate : 25.000 fps ±
± Resolution : 24 bits ±
± Colorimetry : 4:2:0 ±
± Scan type : Progressive ±
± Bits/(Pixel*Frame) : 0.259 ±
± Stream size : 1.01 GiB (74%) ±
± Writing library : DivX 2816 ±
± ±
± Audio ±
± Format : AC-3 ±
± Format/Info : Audio Coding 3 ±
± Codec ID : 2000 ±
± Duration : 1h 52mn ±
± Bit rate mode : Constant ±
± Bit rate : 448 Kbps ±
± Channel(s) : 6 channels ±
± Channel positions : Front: L C R, Surround: L R, LFE ±
± Sampling rate : 48.0 KHz ±
± Stream size : 360 MiB (26%) ±
± Alignment : Split accross interleaves ±
± Interleave, duration : 80 ms (2.00 video frames) ±
± Interleave, preload duration : 500 ms ±
± Language : English ±
± Subtitles : English ±
± ±
± IMDb Rating : 5.9/10 ±
± IMDb URL : http://www.imdb.com/title/tt0257076/ ±
± ±
±°°°°°°°°°°°°°°°°°°°°°°°°°°°°°°°°°°°°°°°°°°°°°°°°°°°°°°°°°°°°°°°°°°°°°°°°°°°°°°±
± ±
± Two wisecracking, battle-hardened veterans (Samuel L. Jackson and Colin ±
± Farrell) team up with a pair of street-smart rookies (Michelle Rodriguez and ±
± LL Cool J) to form the most freewheeling - but effective - S.W.A.T. team ±
± ever. Their first assignment: transport an international drug kingpin into ±
± federal custody - after he's offered $100 million to anyone who will free ±
± him! ±
± ±
± ±
± ±
± ±
± ±
±°°°°°°°°°°°°°°°°°°°°°°°°°°°°°°°°°°°°°°°°°°°°°°°°°°°°°°°°°°°°°°°°°°°°°°°°°°°°°°±
± ±
± CAST: ±
± ±
± Samuel L. Jackson..........Sgt. Dan 'Hondo' Harrelson ±
± Colin Farrell..............Jim Street ±
± Michelle Rodriguez.........Chris Sanchez ±
± LL Cool J..................Deacon 'Deke' Kay ±
± Josh Charles...............T.J. McCabe ±
± Jeremy Renner..............Brian Gamble ±
± Brian Van Holt.............Michael Boxer ±
± ±
±°°°°°°°°°°°°°°°°°°°°°°°°°°°°°°°°°°°°°°°°°°°°°°°°°°°°°°°°°°°°°°°°°°°°°°°°°°°°°°±
± ±
± Please remember to seed ±
± ±
± Seeding is good for the soul ±
± ±
± www.tornster.com ±
± ±
±±±±±±±±±±±±±±±±±±±±±±±±±±±±±±±±±±±±±±±±±±±±±±±±±±±±±±±±±±±±±±±±±±±±±±±±±±±±±±±±

related torrents

Torrent name

health leech seeds Size
 


comments (0)

Main Menu