Action

Rush Hour 1 3

  • Download 5x Faster
  • Download torrent
  • Direct Download
  • Rate this torrent +  |  -
Rush Hour 1 3

Free and Direct Download with Usenet 300GB+ free


Torrent info

Name:Rush Hour 1 3

Total Size: 3.87 GB

Magnet: Magnet Link

Seeds: 2

Leechers: 1

Stream: Watch Online @ Movie4u

Last Updated: 0000-00-00 00:00:00 (Update Now)

Torrent added: 2009-08-22 06:47:13




Torrent Files List


Rush.Hour.3.2007.DVDRip.XViD.AC3 (Size: 3.87 GB) (Files: 6)

 Rush.Hour.3.2007.DVDRip.XViD.AC3

  Rush.Hour.3.2007.DVDRip.XViD.AC3 Cd2.avi

462.13 MB

  Rush.Hour.3.2007.DVDRip.XViD.AC3 Cd1.avi

701.29 MB

 Rush.Hour.2.2001.DVDRip.XviD.AC3

  Rush.Hour.2.2001.DVDRip.XviD.AC3 Cd1.avi

700.27 MB

  Rush.Hour.2.2001.DVDRip.XviD.AC3 Cd2.avi

700.67 MB

 Rush.Hour.1998.DVDRip.XviD.AC3

  Rush.Hour.1998.DVDRip.XviD.AC3 Cd2.avi

699.51 MB

  Rush.Hour.1998.DVDRip.XviD.AC3 Cd1.avi

699.98 MB
 

Announce URL: http://racethe.net/announce.php?passkey=d864fbebd6b347ab7984e70fa4a9b5f1

Torrent description


Rush Hour 1 Cd1

General
Complete name : L:Movies 2MoviesRush Hour 1-3Rush.Hour.1998.DVDRip.XviD.AC3Rush.Hour.1998.DVDRip.XviD.AC3 Cd1.avi
Format : AVI
Format/Info : Audio Video Interleave
File size : 700 MiB
Duration : 44mn 58s
Overall bit rate : 2 176 Kbps
Writing application : VirtualDubMod 1.5.10.1 (build 2439/release)
Writing library : VirtualDubMod build 2439/release

Video
ID : 0
Format : MPEG-4 Visual
Format profile : [email protected]
Format settings, BVOP : No
Format settings, QPel : No
Format settings, GMC : No warppoints
Format settings, Matrix : Default (MPEG)
Codec ID : XVID
Codec ID/Hint : XviD
Duration : 44mn 58s
Bit rate : 1 721 Kbps
Width : 720 pixels
Height : 304 pixels
Display aspect ratio : 2.35
Frame rate : 25.000 fps
Resolution : 24 bits
Colorimetry : 4:2:0
Scan type : Progressive
Bits/(Pixel*Frame) : 0.315
Stream size : 554 MiB (79%)
Writing library : XviD 1.0.1 (UTC 2004-06-05)

Audio
ID : 1
Format : AC-3
Format/Info : Audio Coding 3
Codec ID : 2000
Duration : 44mn 58s
Bit rate mode : Constant
Bit rate : 448 Kbps
Channel(s) : 6 channels
Channel positions : Front: L C R, Surround: L R, LFE
Sampling rate : 48.0 KHz
Video delay : 1s 40ms
Stream size : 144 MiB (21%)
Alignment : Split accross interleaves
Interleave, duration : 96 ms (2.40 video frames)
Interleave, preload duration : 96 ms

-----------------------------------------------------------

Rush Hour 1 Cd2

General
Complete name : L:Movies 2MoviesRush Hour 1-3Rush.Hour.1998.DVDRip.XviD.AC3Rush.Hour.1998.DVDRip.XviD.AC3 Cd2.avi
Format : AVI
Format/Info : Audio Video Interleave
File size : 700 MiB
Duration : 48mn 48s
Overall bit rate : 2 004 Kbps
Writing application : VirtualDubMod 1.5.10.1 (build 2439/release)
Writing library : VirtualDubMod build 2439/release

Video
ID : 0
Format : MPEG-4 Visual
Format profile : [email protected]
Format settings, BVOP : No
Format settings, QPel : No
Format settings, GMC : No warppoints
Format settings, Matrix : Default (MPEG)
Codec ID : XVID
Codec ID/Hint : XviD
Duration : 48mn 48s
Bit rate : 1 549 Kbps
Width : 720 pixels
Height : 304 pixels
Display aspect ratio : 2.35
Frame rate : 25.000 fps
Resolution : 24 bits
Colorimetry : 4:2:0
Scan type : Progressive
Bits/(Pixel*Frame) : 0.283
Stream size : 541 MiB (77%)
Writing library : XviD 1.0.1 (UTC 2004-06-05)

Audio
ID : 1
Format : AC-3
Format/Info : Audio Coding 3
Codec ID : 2000
Duration : 48mn 48s
Bit rate mode : Constant
Bit rate : 448 Kbps
Channel(s) : 6 channels
Channel positions : Front: L C R, Surround: L R, LFE
Sampling rate : 48.0 KHz
Video delay : 24ms
Stream size : 156 MiB (22%)
Alignment : Split accross interleaves
Interleave, duration : 96 ms (2.40 video frames)
Interleave, preload duration : 96 ms


-----------------------------------------------------------

Rush Hour 2 Cd1

General
Complete name : L:Movies 2MoviesRush Hour 1-3Rush.Hour.2.2001.DVDRip.XviD.AC3Rush.Hour.2.2001.DVDRip.XviD.AC3 Cd1.avi
Format : AVI
Format/Info : Audio Video Interleave
File size : 700 MiB
Duration : 44mn 4s
Overall bit rate : 2 221 Kbps
Writing application : VirtualDubMod 1.5.10.1 (build 2439/release)
Writing library : VirtualDubMod build 2439/release

Video
ID : 0
Format : MPEG-4 Visual
Format profile : [email protected]
Format settings, BVOP : No
Format settings, QPel : No
Format settings, GMC : No warppoints
Format settings, Matrix : Default (MPEG)
Codec ID : XVID
Codec ID/Hint : XviD
Duration : 44mn 4s
Bit rate : 1 766 Kbps
Width : 720 pixels
Height : 304 pixels
Display aspect ratio : 2.35
Frame rate : 25.000 fps
Resolution : 24 bits
Colorimetry : 4:2:0
Scan type : Progressive
Bits/(Pixel*Frame) : 0.323
Stream size : 557 MiB (80%)
Writing library : XviD 1.0.1 (UTC 2004-06-05)

Audio
ID : 1
Format : AC-3
Format/Info : Audio Coding 3
Codec ID : 2000
Duration : 44mn 4s
Bit rate mode : Constant
Bit rate : 448 Kbps
Channel(s) : 6 channels
Channel positions : Front: L C R, Surround: L R, LFE
Sampling rate : 48.0 KHz
Stream size : 141 MiB (20%)
Alignment : Split accross interleaves
Interleave, duration : 96 ms (2.40 video frames)
Interleave, preload duration : 96 ms

-----------------------------------------------------------

Rush Hour 2 Cd2

General
Complete name : L:Movies 2MoviesRush Hour 1-3Rush.Hour.2.2001.DVDRip.XviD.AC3Rush.Hour.2.2001.DVDRip.XviD.AC3 Cd2.avi
Format : AVI
Format/Info : Audio Video Interleave
File size : 701 MiB
Duration : 42mn 17s
Overall bit rate : 2 316 Kbps
Writing application : VirtualDubMod 1.5.10.1 (build 2439/release)
Writing library : VirtualDubMod build 2439/release

Video
ID : 0
Format : MPEG-4 Visual
Format profile : [email protected]
Format settings, BVOP : No
Format settings, QPel : No
Format settings, GMC : No warppoints
Format settings, Matrix : Default (MPEG)
Codec ID : XVID
Codec ID/Hint : XviD
Duration : 42mn 17s
Bit rate : 1 861 Kbps
Width : 720 pixels
Height : 304 pixels
Display aspect ratio : 2.35
Frame rate : 25.000 fps
Resolution : 24 bits
Colorimetry : 4:2:0
Scan type : Progressive
Bits/(Pixel*Frame) : 0.340
Stream size : 563 MiB (80%)
Writing library : XviD 1.0.1 (UTC 2004-06-05)

Audio
ID : 1
Format : AC-3
Format/Info : Audio Coding 3
Codec ID : 2000
Duration : 42mn 17s
Bit rate mode : Constant
Bit rate : 448 Kbps
Channel(s) : 6 channels
Channel positions : Front: L C R, Surround: L R, LFE
Sampling rate : 48.0 KHz
Video delay : 16ms
Stream size : 136 MiB (19%)
Alignment : Split accross interleaves
Interleave, duration : 96 ms (2.40 video frames)
Interleave, preload duration : 96 ms

-----------------------------------------------------------

Rush hour 3 Cd1

General
Complete name : L:Movies 2MoviesRush Hour 1-3Rush.Hour.3.2007.DVDRip.XViD.AC3Rush.Hour.3.2007.DVDRip.XViD.AC3 Cd1.avi
Format : AVI
Format/Info : Audio Video Interleave
File size : 701 MiB
Duration : 41mn 46s
Overall bit rate : 2 347 Kbps
Writing application : VirtualDubMod 1.5.10.2 (build 2540/release)
Writing library : VirtualDubMod build 2540/release

Video
ID : 0
Format : MPEG-4 Visual
Format profile : [email protected]
Format settings, BVOP : Yes
Format settings, QPel : No
Format settings, GMC : No warppoints
Format settings, Matrix : Default (MPEG)
Muxing mode : Packed bitstream
Codec ID : XVID
Codec ID/Hint : XviD
Duration : 41mn 46s
Bit rate : 1 890 Kbps
Width : 720 pixels
Height : 304 pixels
Display aspect ratio : 2.35
Frame rate : 25.000 fps
Resolution : 24 bits
Colorimetry : 4:2:0
Scan type : Progressive
Bits/(Pixel*Frame) : 0.345
Stream size : 565 MiB (81%)
Writing library : XviD 1.2.0.dev47 (UTC 2006-11-01)

Audio
ID : 1
Format : AC-3
Format/Info : Audio Coding 3
Codec ID : 2000
Duration : 41mn 46s
Bit rate mode : Constant
Bit rate : 448 Kbps
Channel(s) : 6 channels
Channel positions : Front: L C R, Surround: L R, LFE
Sampling rate : 48.0 KHz
Stream size : 134 MiB (19%)
Alignment : Split accross interleaves
Interleave, duration : 40 ms (1.00 video frame)
Interleave, preload duration : 500 ms

-----------------------------------------------------------

Rush Hour 3 Cd2

General
Complete name : L:Movies 2MoviesRush Hour 1-3Rush.Hour.3.2007.DVDRip.XViD.AC3Rush.Hour.3.2007.DVDRip.XViD.AC3 Cd2.avi
Format : AVI
Format/Info : Audio Video Interleave
File size : 702 MiB
Duration : 45mn 17s
Overall bit rate : 2 167 Kbps
Writing application : VirtualDubMod 1.5.10.2 (build 2540/release)
Writing library : VirtualDubMod build 2540/release

Video
ID : 0
Format : MPEG-4 Visual
Format profile : [email protected]
Format settings, BVOP : Yes
Format settings, QPel : No
Format settings, GMC : No warppoints
Format settings, Matrix : Default (MPEG)
Muxing mode : Packed bitstream
Codec ID : XVID
Codec ID/Hint : XviD
Duration : 45mn 17s
Bit rate : 1 709 Kbps
Width : 720 pixels
Height : 304 pixels
Display aspect ratio : 2.35
Frame rate : 25.000 fps
Resolution : 24 bits
Colorimetry : 4:2:0
Scan type : Progressive
Bits/(Pixel*Frame) : 0.312
Stream size : 554 MiB (79%)
Writing library : XviD 1.2.0.dev47 (UTC 2006-11-01)

Audio
ID : 1
Format : AC-3
Format/Info : Audio Coding 3
Codec ID : 2000
Duration : 45mn 16s
Bit rate mode : Constant
Bit rate : 448 Kbps
Channel(s) : 6 channels
Channel positions : Front: L C R, Surround: L R, LFE
Sampling rate : 48.0 KHz
Video delay : 16ms
Stream size : 145 MiB (21%)
Alignment : Split accross interleaves
Interleave, duration : 40 ms (1.00 video frame)
Interleave, preload duration : 500 ms

http://www.imdb.com/title/tt0120812/

related torrents

Torrent name

health leech seeds Size

Rush Hour Triology

0 0 1.38 GB 0
 

comments (0)

Main Menu