Action

Rogue Im falschem Revier

  • Download 5x Faster
  • Download torrent
  • Direct Download
  • Rate this torrent +  |  -
Rogue Im falschem Revier

Anonymous and Free Direct Download


Torrent info

Name:Rogue Im falschem Revier

Total Size: 699.85 MB

Magnet: Magnet Link

Seeds: 0

Leechers: 0

Stream: Watch Online @ Movie4u

Last Updated: 2010-08-25 16:44:18 (Update Now)

Torrent added: 2009-08-22 06:41:30



VPN For Torrents

Torrent Files List


t-37221-1.jpg (Size: 699.85 MB) (Files: 3)

 t-37221-1.jpg

13.12 KB

 Rogue.Im.falschen.Revier

  Rogue.Im.Falschen.Revier.Deutsch.Xvid.avi

699.83 MB

 Info.txt

2.73 KB
 

Announce URL: http://irrenhaus.dyndns.dk/announce.php

Torrent description





Rogue - Im falschen Revier (Australia 2007)
Release Date...: 24.08.2008
Store Date...: 09.09.2008
Cinema Date...: STV
Genre..........: ActionAdventureHorrorThriller
Rating.........: FSK 16
Runtime........: 89 Minutes
Der amerikanische Reisejournalist Pete hakt der Reihe nach
australische Sehenswrdigkeiten ab und geht jetzt auch,
obwohl eigentlich kein besonderer Tierfreund, auf
Wassersafari ins nordaustralische Revier der
Salzwasserkrokodile. Zunchst verluft die Fahrt unter
Leitung der attraktiven Wildhterin Kate weitgehend
planmig, doch dann verirrt man sich ins Revier eines
wahren Kolosses. Das Tier legt das Boot lahm und
belagert die gestrandeten Touristen auf einer Insel,
die sptestens bei Flut keine Insel mehr ist.
Format : AVI
Format/Info : Audio Video Interleave
Dateigre : 700 MiB
Duration : 1h 29min
Gesamte Bitrate : 1097 Kbps
Verwendetes Programm : Nandub v1.0rc2
verwendete Encoder-Bibliothek : Nandub build 1853/release
Video
Format : MPEG-4 Visual
Format profile : Streaming [email protected]
Format settings, BVOP : Ja
Format settings, QPel : Nein
Format settings, GMC : No warpoints
Format settings, Matrix : Default
Codec ID : XVID
Codec ID/Hint : XviD
Duration : 1h 29min
Bitrate : 948 Kbps
Breite : 592 Pixel
Höhe : 320 Pixel
Bildseitenverhältnis : 1.850
Bildwiederholungsrate : 25.000 FPS
Auflösung : 8 bits
Colorimetry : 4:2:0
Scan type : Progressive
Bits/(Pixel*Frame) : 0.200
Stream size : 605 MiB
verwendete Encoder-Bibliothek : XviD 1.2.0.dev47 (UTC 2006-11-01)
Audio
Format : MPEG Audio
Format version : Version 1
Format profile : Layer 3
Codec ID : 55
Codec ID/Hint : MP3
Duration : 1h 29min
Bitraten-Modus : Variable
Bitrate : 136 Kbps
Minimum bit rate : 32.0 Kbps
Kanäle : 2 Kanäle
Samplingrate : 48.0 KHz
Auflösung : 16 bits
Stream size : 86.8 MiB
verwendete Encoder-Bibliothek : LAME3.98b
Kodierungseinstellungen : VBR (mtrh)

related torrents

Torrent name

health leech seeds Size
 


comments (0)

Main Menu