Action

[email protected] H 264 RIP[ENG]

  • Download 5x Faster
  • Download torrent
  • Direct Download
  • Rate this torrent +  |  -

Torrent info

Name:[email protected] H 264 RIP[ENG]

Total Size: 899.15 MB

Magnet: Magnet Link

Seeds: 1

Leechers: 1

Stream: Watch Online @ Movie4u

Last Updated: 2010-08-25 16:44:18 (Update Now)

Torrent added: 2009-08-22 06:40:47



VPN For Torrents

Torrent Files List


Torrent downloaded from Demonoid.com-2.txt (Size: 899.15 MB) (Files: 3)

 Torrent downloaded from Demonoid.com-2.txt

0.05 KB

 rocky 1.mp4

899.12 MB

 Noname.jpg

21.20 KB
 

Announce URL: http://inferno.demonoid.com:3413/announce

Torrent description

Description

This is the film that catapulted Sylvester Stallone into the international spotlight and launched one of the most successful series of films in movie history, This is the story of a loser, a two bit boxer from Philadelphia, who gets a second chance in life by being offered an impossible shot at the heavyweight title. Stallone's performance is as powerful as his character's punches in the ring. This is one of the most exciting action movies you will ever see.
Rocky is the simple story of a man whom fate chooses for a shot at glory in what has otherwise been an ordinary life. And while this subject matter is nothing new, it was unusual for Hollywood to release an old-fashioned 'feel-good' movie in the seventies, a decade whose films were mostly unconventional in attitude and anti-establishment in tone.
Rocky is, of course, a fairy tale, but by grounding its characters in an everyday reality, the filmmakers were able to make them seem real and alive. And making the major contribution to that sense of reality was Sylvester Stallone, an out-of-work actor/writer whose faith in himself took him from utter obscurity to world-wide fame and fortune virtually overnight.....

Format : MPEG-4
Format profile : Base Media / Version 2
Codec ID : mp42
File size : 899 MiB
Duration : 1h 54mn
Overall bit rate : 1 100 Kbps
Encoded date : UTC 2009-05-26 03:08:56
Tagged date : UTC 2009-05-26 07:52:01
Writing application : HandBrake 0.9.3 2008112300

Video
Format : AVC
Format/Info : Advanced Video Codec
Format profile : [email protected]
Format settings, CABAC : Yes
Format settings, ReFrames : 3 frames
Codec ID : avc1
Codec ID/Info : Advanced Video Coding
Duration : 1h 54mn
Bit rate mode : Variable
Bit rate : 937 Kbps
Width : 718 pixels
Height : 408 pixels
Display aspect ratio : 1.877
Frame rate mode : Variable
Frame rate : 25.000 fps
Minimum frame rate : 12.500 fps
Maximum frame rate : 57.143 fps
Resolution : 24 bits
Colorimetry : 4:2:0
Scan type : Progressive
Bits/(Pixel*Frame) : 0.128
Stream size : 765 MiB (85%)
Writing library : x264 core 65


Audio
Format : AAC
Format/Info : Advanced Audio Codec
Format version : Version 4
Format profile : LC
Format settings, SBR : No
Codec ID : 40
Duration : 1h 54mn
Bit rate mode : Variable
Bit rate : 160 Kbps
Maximum bit rate : 224 Kbps
Channel(s) : 2 channels
Channel positions : L R
Sampling rate : 48.0 KHz
Resolution : 16 bits
Stream size : 131 MiB (15%)
Language : English
Encoded date : UTC 2009-05-26 03:08:56
Tagged date : UTC 2009-05-26 07:51:56

related torrents

Torrent name

health leech seeds Size
 


comments (0)

Main Menu