Action

Resident Evil Extinction (2007) DD 5 1 Subs FIN XviD *DM*

  • Download 5x Faster
  • Download torrent
  • Direct Download
  • Rate this torrent +  |  -
Resident Evil Extinction (2007) DD 5 1 Subs FIN XviD *DM*

Anonymous and Free Direct Download 300GB+


Torrent info

Name:Resident Evil Extinction (2007) DD 5 1 Subs FIN XviD *DM*

Total Size: 878.48 MB

Magnet: Magnet Link

Seeds: 0

Leechers: 0

Stream: Watch Online @ Movie4u

Last Updated: 0000-00-00 00:00:00 (Update Now)

Torrent added: 2009-08-22 06:22:55



VPN For Torrents

Torrent Files List


Torrent downloaded from Demonoid.com.txt (Size: 878.48 MB) (Files: 8)

 Torrent downloaded from Demonoid.com.txt

0.05 KB

 resident_evil_extinction_poster_3.jpg

158.07 KB

 Resident_Evil_Extinction.Finnish.srt

32.15 KB

 Resident_Evil_Extinction.avi

877.61 MB

 Resident-Evil-Extinction_Wallpaper.jpg

288.34 KB

 resident-evil-extinction-movie-poster12.jpg

142.91 KB

 resevilextinction_dvdcover.jpg

189.41 KB

 poster_resident_evil_extinction_ver5.jpg

78.01 KB
 

Announce URL: http://inferno.demonoid.com:3412/announce

Torrent description

RESIDENT EVIL EXTINCTION (2007) (aka Resi 3) DvdRip in XviD 1.2.1 Audio original English DOLBY DIGITAL 5.1 AC3.

[SUOMALAINEN sinulle infoa alempana]:

This torrent has got 8 files: movie, FINsub, textfile, 5 posters/wallpapers.


Xvid encoding done by me yesterday with FairUse Wizard 2.9. Slowest/best quality encoding settings (2-pass vbr, slowest encoding, quality based) and the original 5.1 DD sound ripped as it is originally (no compression).
FIN subs made and translated by Mentori (thanks to him!) because SubRip couldn't handle this DVD, and yes they are in .srt so you can watch them on your standalone Dvd-Divx player as well !!! Works perfectly (tested).

Dvd......... Retail PAL Dvd ripped with DvdFab
Audio....... English 5.1 DolbyDigital AC3 (Original) 384 Kbps
Subs........ external subs FIN in .srt (PC and TV compatible with Dvd-player)
(you can of course watch without subs as well)
XviD + Qty....966 kbps (Superb qty. Full Dvd-quality is always my only goal!)
Resolution... 704x288 (Anamorpic Widescreen)

------------------------------------------------------------------------------------

I HAVE ADDED MANY OTHER MOVIES LATELY !!! MANY GOOD SEEDERS (Thanks to All of

You !!!) LINK:

http://thepiratebay.org/user/DigieraMandela/

----------------------------------------------------------------------------------
SUOMEKSI:

Resident Evil Tuho. Dolby Digital 5.1 äänet. Subit ja suomennos Mentori (jolle kiitokset!). Tekstit toimivat loistavasti sekä PC:llä että TV:ssä Dvd-Divx-soittimella. Laatu? Parasta mahdollista laatua. Nyt laatu marginaalisesti vielä parempaa kun olen alkanut käyttää xvid 1.2.1 koodekkia. Ainakin pimeät kohdat elokuvissa näkyvät paremmin kuin ennen 1.2.0:lla. Tässä on parasta laatua sinulle suomalainen. Aina DD 5.1 äänet ja keneltä muulta saisit toimivat .srt subit? Muista aina jatkossakin tsekata *DM*. Ok?

-----------------------------------------------------------------------------------
LOG

General
Complete name : H:AVI movies 5.1 sound XviD DivX ac-3RESIDENT EVIL EXTINCTIONRESIDENT EVIL EXTINCTION.avi
Format : AVI
Format/Info : Audio Video Interleave
File size : 878 MiB
Duration : 1h 30mn
Overall bit rate : 1 360 Kbps
Writing application : VirtualDubMod 1.5.10.2 (build 2540/release)
Writing library : VirtualDubMod build 2540/release

Video
Format : MPEG-4 Visual
Format profile : Streaming [email protected]
Format settings, BVOP : Yes
Format settings, QPel : No
Format settings, GMC : No warppoints
Format settings, Matrix : Default (H.263)
Muxing mode : Packed bitstream
Codec ID : XVID
Codec ID/Hint : XviD
Duration : 1h 30mn
Bit rate : 966 Kbps
Width : 704 pixels
Height : 288 pixels
Display aspect ratio : 2.444
Frame rate : 25.000 fps
Resolution : 24 bits
Colorimetry : 4:2:0
Scan type : Progressive
Bits/(Pixel*Frame) : 0.191
Stream size : 624 MiB (71%)
Writing library : XviD 1.2.1 (UTC 2008-12-04)

Audio
Format : AC-3
Format/Info : Audio Coding 3
Codec ID : 2000
Duration : 1h 30mn
Bit rate mode : Constant
Bit rate : 384 Kbps
Channel(s) : 6 channels
Channel positions : Front: L C R, Surround: L R, LFE
Sampling rate : 48.0 KHz
Stream size : 248 MiB (28%)
Alignment : Split accross interleaves
Interleave, duration : 40 ms (1.00 video frame)
Interleave, preload duration : 500 ms

related torrents

Torrent name

health leech seeds Size
 


comments (0)

Main Menu