Action

Red Sands 2009 DVDRIP ZEKTORM

  • Download 5x Faster
  • Download torrent
  • Direct Download
  • Rate this torrent +  |  -
Red Sands 2009 DVDRIP ZEKTORM

Download FREE And Anonymously


Torrent info

Name:Red Sands 2009 DVDRIP ZEKTORM

Total Size: 717.56 MB

Magnet: Magnet Link

Seeds: 0

Leechers: 1

Stream: Watch Full Movie @ Movie4u

Last Updated: 2017-04-17 15:17:53 (Update Now)

Torrent added: 2009-08-22 06:13:59



VPN For Torrents

Torrent Files List


Subs (Size: 717.56 MB) (Files: 4)

 Subs

  Red Sands.2009.DVDRIP-ZEKTORM.sub

17.20 MB

  Red Sands.2009.DVDRIP-ZEKTORM.idx

194.45 KB

 Red Sands.2009.DVDRIP-ZEKTORM.mp4

700.16 MB

 READ.hlp

12.79 KB
4div c݇бs-ar2 h1P1ȉ11

tracker

leech seeds
5v claay62 ba111

Torrent description

Title : Red Sands
Year : 2009
Genre : Action | Horror
iMDB URL : http://www.imdb.com/title/tt1103256/
Awards : 2 wins

Complete name : Red Sands.2009.DVDRIP-ZEKTORM.mp4
Format : MPEG-4
Format profile : Base Media
Codec ID : isom
File size : 700 MiB
Duration : 1h 28mn
Overall bit rate : 1103 Kbps
Subtitles : English, Spanish, Portuguese, Thai, French, Chinese (Format: VobSub)
Source : DVD NTSC
Encoded date : UTC 2009-01-30 09:11:38

Video
Format : AVC
Format/Info : Advanced Video Codec
Format profile : [email protected]
Format settings, CABAC : Yes
Format settings, ReFrames : 10 frames
Codec ID : avc1
Codec ID/Info : Advanced Video Coding
Duration : 1h 28mn
Bit rate mode : Variable
Bit rate : 1014 Kbps
Maximum bit rate : 7199 Kbps
Width : 720 pixels
Height : 464 pixels
Display aspect ratio : 1.881
Frame rate mode : Constant
Frame rate : 29.970 fps
Resolution : 24 bits
Colorimetry : 4:2:0
Scan type : Progressive
Bits/(Pixel*Frame) : 0.101
Stream size : 643 MiB (92%)
Title : Video
Writing library : x264 core 60 r900 a9af942

Audio
Format : AAC
Format/Info : Advanced Audio Codec
Format version : Version 4
Format profile : LC
Format settings, SBR : Yes
Format settings, PS : No
Codec ID : 40
Duration : 1h 28mn
Bit rate mode : Variable
Bit rate : 86.1 Kbps
Maximum bit rate : 108 Kbps
Channel(s) : 2 channels
Channel positions : L R
Sampling rate : 48.0 KHz
Resolution : 16 bits
Stream size : 54.7 MiB (8%)
Title : English
Language : English

Notes : Convert to DVD with Nero

related torrents

Torrent name

health leech seeds Size

Red Sands 2009 PAL DVDR

23 5 4.47 GB 0
 


comments (0)

Main Menu

 

script data-cfasync="false" src="//d2ghscazvn398x.cloudfront.net/?cshgd=690275">