Action

Ravenous_1999

  • Download 5x Faster
  • Download torrent
  • Direct Download
  • Rate this torrent +  |  -
Ravenous_1999

Free and Direct Download with Usenet.nl 300GB+ free


Torrent info

Name:Ravenous_1999

Total Size: 707.60 MB

Magnet: Magnet Link

Seeds: 5

Leechers: 6

Stream: Watch Online @ Movie4u

Last Updated: 2010-08-30 15:21:15 (Update Now)

Torrent added: 2009-08-22 06:10:09





Torrent Files List


Ravenous.avi (Size: 707.60 MB) (Files: 1)

 Ravenous.avi

707.60 MB
 

Announce URL: http://open.tracker.thepiratebay.org:80/announce

Torrent description

General
Complete name : Ravenous
Year : 1999
Director : Antonia Bird

Format : AVI
Format/Info : Audio Video Interleave
File size : 708 MiB
Duration : 1h 40mn
Overall bit rate : 982 Kbps
Writing application : Lavf52.17.0

Video
Format : AVC
Format/Info : Advanced Video Codec
Format profile : [email protected]
Format settings, CABAC : No
Format settings, ReFrames : 1 frame
Codec ID : H264
Duration : 1h 40mn
Bit rate : 523 Kbps
Nominal bit rate : 516 Kbps
Width : 608 pixels
Height : 258 pixels
Display aspect ratio : 2.35
Frame rate : 23.976 fps
Resolution : 24 bits
Colorimetry : 4:2:0
Scan type : Progressive
Bits/(Pixel*Frame) : 0.139
Stream size : 377 MiB (53%)
Writing library : x264 core 60

Audio
Format : AC-3
Format/Info : Audio Coding 3
Codec ID : 2000
Duration : 1h 40mn
Bit rate mode : Constant
Bit rate : 448 Kbps
Channel(s) : 6 channels
Channel positions : Front: L C R, Surround: L R, LFE
Sampling rate : 48.0 KHz
Stream size : 323 MiB (46%)
Alignment : Aligned on interleaves
Interleave, duration : 32 ms (0.77 video frame)

Plot
Captain John Boyd receives a promotion after defeating the enemy
command in a battle of the Mexican-American War, but because the
general realizes it was an act of cowardice that got him there,
he is given a backhanded promotion to Fort Spencer, where he is
third in command. The others at the fort are two Indians, George
and his sister, Martha, who came with the place, Chaplain Toffler,
Reich, the soldier; Cleaves, a drugged-up cook; and Knox, who is
frequently drunk. When a Scottish stranger named Colquhoun appears
and recovers from frostbite almost instantly after being bathed,
he tells a story about his party leader, Ives, eating members of
the party to survive. As part of their duty, they must go up to
the cave where this occurred to see if any have survived. Only
Martha, Knox, and Cleaves stay behind. George warns that since
Colquhoun admits to eating human flesh, he must be a Windigo, a
ravenous cannibalistic creature.

related torrents

Torrent name

health leech seeds Size
 

comments (0)

Main Menu