Action

Pride And Glory 2008 DVDrip oddball ENG

  • Download 5x Faster
  • Download torrent
  • Direct Download
  • Rate this torrent +  |  -
Pride And Glory 2008 DVDrip oddball ENG

Anonymous and Free Direct Download 300GB+


Torrent info

Name:Pride And Glory 2008 DVDrip oddball ENG

Total Size: 1.28 GB

Magnet: Magnet Link

Seeds: 22

Leechers: 13

Stream: Watch Online @ Movie4u

Last Updated: 2010-11-30 16:17:26 (Update Now)

Torrent added: 2009-08-22 05:54:52



VPN For Torrents

Torrent Files List


Reed Me .txt (Size: 1.28 GB) (Files: 3)

 Reed Me .txt

0.06 KB

 Pride And Glory - 2008 DVDrip oddball.avi

1.28 GB

 Cover.jpg

4.72 KB
 

Announce URL: http://open.tracker.thepiratebay.org/announce

Torrent description

` ===========================================
=========== ===== == ============ == =
=========== ===== == ============ == =
=========== ===== == ============ == =
== ====== ===== == ====== === == =
= === === == === = == == =
= = == = == = == = ===== == == =
= = == = == = == = === == == =
= = == = == = == = == = == == =
== ==== === == ==== == == =
===========================================
- Links.com ` Pride and Glory is a 2008 American crime drama film directed by Gavin O'Connor and starring Edward Norton and Colin Farrell. The film was released on October 24, 2008 in the United States. ` Screen Shots ` Pride And Glory   2008 DVDrip oddball ENG preview 0 `
Pride And Glory   2008 DVDrip oddball ENG preview 1 ` Pride And Glory   2008 DVDrip oddball ENG preview 2 `
Pride And Glory   2008 DVDrip oddball ENG preview 3 `
Pride And Glory   2008 DVDrip oddball ENG preview 4 ` _______ _______ _______ _______
| |_____| |______ |
|_____ | | ______| | ` Actor Role ` Colin Farrell .................. Jimmy Eagan

Edward Norton ................... Ray Tierney

Jon Voight ...................... Francis Tierney, Sr.

Noah Emmerich ................... Francis Tierney, Jr.

Jennifer Ehle ................... Abby Tierney

John Ortiz ...................... Sandy

Frank Grillo .................... Eddie Carbone

Shea Whigham .................... Kenny Dugan

Lake Bell ....................... Megan Egan

Carmen Ejogo .................... Tasha

Manny Perez ..................... Coco Dominguez

Wayne Duvall .................... Bill Avery

Ramon Rodriguez ................. Angel Tezo

Rick Gonzalez ................... Eladio Casado

Maximiliano Hernández ........... Carlos Bragon ` General
Complete name : Pride And Glory - 2008
Format : AVI
Format/Info : Audio Video Interleave
File size : 1.28 GiB
Duration : 2h 4mn
Overall bit rate : 1 467 Kbps

Video
Format : MPEG-4 Visual
Format profile : Streaming Video@L1
Format settings, BVOP : Yes
Format settings, QPel : No
Format settings, GMC : No warppoints
Format settings, Matrix : Default
Muxing mode : Packed bitstream
Codec ID : XVID
Codec ID/Hint : XviD
Duration : 2h 4mn
Bit rate : 1 263 Kbps
Width : 1 024 pixels
Height : 582 pixels
Display aspect ratio : 16/9
Frame rate : 29.970 fps
Resolution : 24 bits
Colorimetry : 4:2:0
Scan type : Progressive
Bits/(Pixel*Frame) : 0.071
Stream size : 1.10 GiB (86%)
Writing library : XviD 1.2.1 (UTC 2008-12-04)

Audio
Format : MPEG Audio
Format version : Version 1
Format profile : Layer 3
Codec ID : 55
Codec ID/Hint : MP3
Duration : 2h 4mn
Bit rate mode : Constant
Bit rate : 192 Kbps
Channel(s) : 2 channels
Sampling rate : 44.1 KHz
Resolution : 16 bits
Video delay : 26ms
Stream size : 171 MiB (13%)
Alignment : Split accross interleaves
Interleave, duration : 33 ms (1.00 video frame)
Title : Audio Stream ` Please seed after downloading `

related torrents

Torrent name

health leech seeds Size
 


comments (0)

Main Menu