Action

NIGHTBREED_1999

  • Download 5x Faster
  • Download torrent
  • Direct Download
  • Rate this torrent +  |  -
NIGHTBREED_1999

Free and Direct Download with Usenet.nl 300GB+ free


Torrent info

Name:NIGHTBREED_1999

Total Size: 702.38 MB

Magnet: Magnet Link

Seeds: 0

Leechers: 1

Stream: Watch Online @ Movie4u

Last Updated: 2010-08-22 00:43:39 (Update Now)

Torrent added: 2009-08-22 05:26:54





Torrent Files List


NIGHTBREED.avi (Size: 702.38 MB) (Files: 1)

 NIGHTBREED.avi

702.38 MB
 

Announce URL: http://open.tracker.thepiratebay.org:80/announce

Torrent description

General
Release Date : 1990
Director : Clive Barker
Complete name : Nightbreed

Format : AVI
Format/Info : Audio Video Interleave
File size : 702 MiB
Duration : 1h 41mn
Overall bit rate : 967 Kbps
Writing application : Lavf52.17.0

Video
Format : AVC
Format/Info : Advanced Video Codec
Format profile : [email protected]
Format settings, CABAC : No
Format settings, ReFrames : 1 frame
Codec ID : H264
Duration : 1h 41mn
Bit rate : 508 Kbps
Width : 720 pixels
Height : 416 pixels
Display aspect ratio : 16/9
Frame rate : 23.976 fps
Resolution : 24 bits
Colorimetry : 4:2:0
Scan type : Progressive
Bits/(Pixel*Frame) : 0.071
Stream size : 369 MiB (53%)
Writing library : x264 core 60

Audio
Format : AC-3
Format/Info : Audio Coding 3
Codec ID : 2000
Duration : 1h 41mn
Bit rate mode : Constant
Bit rate : 448 Kbps
Channel(s) : 6 channels
Channel positions : Front: L C R, Surround: L R, LFE
Sampling rate : 48.0 KHz
Stream size : 325 MiB (46%)
Interleave, duration : 32 ms (0.77 video frame)


Plot
A man flees a disturbed past and an empty future pursued by the law,
a psychopathic killer, and a woman who still loves him. His goal is to
seek sanctuary in the tiny town of Midian, somewhere in central Canada.
In this town, which appears on the surface to be nothing but a graveyard,
but "Midian is where the monsters go," according to legend. Under the
graves lies a massive complex for the lost souls to live, but at a
terrible price

related torrents

Torrent name

health leech seeds Size

The Nightbreed DVDrip DivX

3 13 682.98 MB 0

Nightbreed

0 0 889.96 MB 0

Nightbreed swesub avi

0 1 699.00 MB 0
 

comments (0)

Main Menu