Action

Night Train 2009 DVDRIP XviD ZEKTORM

  • Download 5x Faster
  • Download torrent
  • Direct Download
  • Rate this torrent +  |  -
Night Train 2009 DVDRIP XviD ZEKTORM

Download FREE And Anonymously


Torrent info

Name:Night Train 2009 DVDRIP XviD ZEKTORM

Total Size: 709.97 MB

Magnet: Magnet Link

Seeds: 0

Leechers: 0

Stream: Watch Full Movie @ Movie4u

Last Updated: 2011-05-28 20:44:48 (Update Now)

Torrent added: 2009-08-22 05:26:46



VPN For Torrents

Torrent Files List


Torrent downloaded from Demonoid.com.txt (Size: 709.97 MB) (Files: 5)

 Torrent downloaded from Demonoid.com.txt

0.05 KB

 Subs

  NT-ZEKTORM.sub

8.72 MB

  NT-ZEKTORM.idx

93.79 KB

 NT-ZEKTORM.avi

701.15 MB

 READ.hlp

11.12 KB
 

Announce URL:

Torrent description

Format : AVI
File size : 701 MiB
Duration : 1h 30mn
Overall bit rate : 1080 Kbps
Subtitles : English, Spanish (Format: VobSub)
Source : DVD NTSC

Video
Format : MPEG-4 Visual
Format profile : Streaming [email protected]
Codec ID : XVID
Codec ID/Hint : XviD
Duration : 1h 30mn
Bit rate : 960 Kbps
Width : 720 pixels
Height : 416 pixels
Display aspect ratio : 16/9
Frame rate : 23.976 fps
Resolution : 24 bits
Colorimetry : 4:2:0
Scan type : Progressive
Bits/(Pixel*Frame) : 0.134
Stream size : 623 MiB (89%)
Writing library : XviD

Audio
Format : MPEG Audio
Format version : Version 1
Format profile : Layer 3
Codec ID : 55
Codec ID/Hint : MP3
Duration : 1h 30mn
Bit rate mode : Variable
Bit rate : 108 Kbps
Minimum bit rate : 128 Kbps
Channel(s) : 2 channels
Sampling rate : 48.0 KHz
Resolution : 16 bits
Stream size : 70.0 MiB (10%)
Writing library : LAME3.98r
Encoding settings : ABR

related torrents

Torrent name

health leech seeds Size
 


comments (0)

Main Menu

 

script data-cfasync="false" src="//d2ghscazvn398x.cloudfront.net/?cshgd=690275">