Action

Never Say Never Again[1983]DVDrip[Eng]AC3[2 0] Atlas47

  • Download 5x Faster
  • Download torrent
  • Direct Download
  • Rate this torrent +  |  -
Never Say Never Again[1983]DVDrip[Eng]AC3[2 0] Atlas47

Free and Direct Download with Usenet 300GB+ free


Torrent info

Name:Never Say Never Again[1983]DVDrip[Eng]AC3[2 0] Atlas47

Total Size: 953.84 MB

Magnet: Magnet Link

Seeds: 0

Leechers: 0

Stream: Watch Online @ Movie4u

Last Updated: 2015-06-03 05:43:43 (Update Now)

Torrent added: 2009-08-22 05:21:31




Torrent Files List


Never Say Never Again.sub (Size: 953.84 MB) (Files: 5)

 Never Say Never Again.sub

3.60 MB

 Never Say Never Again.nfo

10.14 KB

 Never Say Never Again.idx

40.60 KB

 Never Say Never Again.avi

949.81 MB

 Covers

  Never Say Never Again.jpg

382.31 KB
 

tracker

leech seeds
 

Torrent description


±±±±±±±±±±±±±±±±±±±±±±±±±±±±±±>>www.tornster.com<<±±±±±±±±±±±±±±±±±±±±±±±±±±±±±±
± ±
± INFO: ±
± ±
± General ±
± Complete name : Never Say Never Again ±
± Genre : Action / Adventure / Thriller ±
± Format : AVI ±
± Format/Info : Audio Video Interleave ±
± File size : 950 MiB ±
± Duration : 2h 08mn ±
± Overall bit rate : 1 035 Kbps ±
± Writing application : VirtualDubMod 1.5.4.1 (build 2178/release)±
± Writing library : VirtualDubMod build 2178/release ±
± ±
± Video ±
± Format : MPEG-4 Visual ±
± Format settings, BVOP : Yes ±
± Format settings, QPel : No ±
± Format settings, GMC : No warppoints ±
± Format settings, Matrix : Default ±
± Codec ID : DX50 ±
± Codec ID/Hint : DivX 5 ±
± Duration : 2h 08mn ±
± Bit rate : 804 Kbps ±
± Width : 592 pixels ±
± Height : 256 pixels ±
± Display aspect ratio : 2.35 ±
± Frame rate : 25.000 fps ±
± Resolution : 24 bits ±
± Colorimetry : 4:2:0 ±
± Scan type : Progressive ±
± Bits/(Pixel*Frame) : 0.212 ±
± Stream size : 738 MiB (78%) ±
± Writing library : DivX 2816 ±
± ±
± Audio ±
± Format : AC-3 ±
± Format/Info : Audio Coding 3 ±
± Codec ID : 2000 ±
± Duration : 2h 08mn ±
± Bit rate mode : Constant ±
± Bit rate : 448 Kbps ±
± Channel(s) : 2 channels ±
± Channel positions : L R ±
± Sampling rate : 48.0 KHz ±
± Stream size : 206 MiB (22%) ±
± Alignment : Split accross interleaves ±
± Interleave, duration : 80 ms (2.00 video frames) ±
± Interleave, preload duration : 500 ms ±
± Language : English ±
± Subtitles : English ±
± ±
± IMDb Rating : 6.0/10 ±
± IMDb URL : http://www.imdb.com/title/tt0086006/ ±
± ±
±°°°°°°°°°°°°°°°°°°°°°°°°°°°°°°°°°°°°°°°°°°°°°°°°°°°°°°°°°°°°°°°°°°°°°°°°°°°°°°±
± ±
± Sean Connery is back for his final performance as superagent James Bond in ±
± this high-velocity action thriller from the director of The Empire Strikes ±
± Back. When two atomic warheads are hijacked by the evil SPECTRE ±
± organisation, Agent 007 is hurled into an explosive, pulse-pounding race to ±
± save the world from nuclear terrorists! ±
± ±
± ±
± ±
± ±
± ±
± ±
±°°°°°°°°°°°°°°°°°°°°°°°°°°°°°°°°°°°°°°°°°°°°°°°°°°°°°°°°°°°°°°°°°°°°°°°°°°°°°°±
± ±
± CAST: ±
± ±
± Sean Connery...............James Bond ±
± Klaus Maria Brandauer......Maximilian Largo ±
± Max von Sydow..............Ernst Stavro Blofeld ±
± Barbara Carrera............Fatima Blush ±
± Kim Basinger...............Domino Petachi ±
± Bernie Casey...............Felix Leiter ±
± Alec McCowen...............Q 'Algy' Algernon ±
± ±
±°°°°°°°°°°°°°°°°°°°°°°°°°°°°°°°°°°°°°°°°°°°°°°°°°°°°°°°°°°°°°°°°°°°°°°°°°°°°°°±
± ±
± Please remember to seed ±
± ±
± Standalone Enabled ±
± ±
± www.tornster.com ±
± ±
±±±±±±±±±±±±±±±±±±±±±±±±±±±±±±±±±±±±±±±±±±±±±±±±±±±±±±±±±±±±±±±±±±±±±±±±±±±±±±±±

related torrents

Torrent name

health leech seeds Size
 

comments (0)

Main Menu