Action

Never Die Alone 2004 DVDRiP AC 3 XViD

  • Download 5x Faster
  • Download torrent
  • Direct Download
  • Rate this torrent +  |  -
Never Die Alone 2004 DVDRiP AC 3 XViD

Anonymous and Free Direct Download 300GB+


Torrent info

Name:Never Die Alone 2004 DVDRiP AC 3 XViD

Total Size: 703.42 MB

Magnet: Magnet Link

Seeds: 0

Leechers: 0

Stream: Watch Online @ Movie4u

Last Updated: 2015-09-03 03:43:07 (Update Now)

Torrent added: 2009-08-22 05:21:11



VPN For Torrents

Torrent Files List


Never.Die.Alone.2004.DVDRiP.AC-3.XViD.avi (Size: 703.42 MB) (Files: 3)

 Never.Die.Alone.2004.DVDRiP.AC-3.XViD.avi

700.40 MB

 Never Die Alone - DVD.jpg

1.14 MB

 Never Die Alone - Cover.jpg

1.88 MB
 

tracker

leech seeds
 

Torrent description






Titel.........: Never.Die.Alone.2004.DVDRiP.AC-3.XViD
Genre.........: Action/Drama
Jahr..........: 2004
Spieldauer....: 84min
Source........: PAL-DVD9
FSK...........: 16
Encoder.......: k.a.


Inhalt........:

http://www.filmstarts.de/kritiken/37237-Never-Die-Alone.html

http://www.imdb.com/title/tt0354766/

ViDEO...........:

Format : MPEG-4 Visual
Format profile : [email protected]
Format settings, BVOP : Yes
Format settings, QPel : No
Format settings, GMC : No warppoints
Format settings, Matrix : Custom
Codec ID : XVID
Codec ID/Hint : XviD
Duration : 1h 24mn
Bit rate : 764 Kbps
Width : 608 pixels
Height : 256 pixels
Display aspect ratio : 2.35
Frame rate : 25.000 fps
Resolution : 24 bits
Colorimetry : 4:2:0
Scan type : Progressive
Bits/(Pixel*Frame) : 0.196
Stream size : 463 MiB (66)
Writing library : XviD 1.0.3

AUDiO............:

Format : AC-3
Format/Info : Audio Coding 3
Codec ID : 2000
Duration : 1h 24mn
Bit rate mode : Constant
Bit rate : 384 Kbps
Channel(s) : 6 channels
Channel positions : Front: L C R, Rear: L R, LFE
Sampling rate : 48.0 KHz
Video delay : 24ms
Stream size : 233 MiB (33)
Alignment : Split accross interleaves
Interleave, duration : 96 ms (2.40 video frames)
Interleave, preload duration : 96 ms

related torrents

Torrent name

health leech seeds Size
 


comments (0)

Main Menu