Action

Mind Hunters

  • Download 5x Faster
  • Download torrent
  • Direct Download
  • Rate this torrent +  |  -
Mind Hunters

Free and Direct Download with Usenet 300GB+ free


Torrent info

Name:Mind Hunters

Total Size: 702.64 MB

Magnet: Magnet Link

Seeds: 0

Leechers: 0

Stream: Watch Online @ Movie4u

Last Updated: 2016-12-19 17:37:47 (Update Now)

Torrent added: 2009-08-22 04:50:16




Torrent Files List


Mind Hunters.avi (Size: 702.64 MB) (Files: 1)

 Mind Hunters.avi

702.64 MB
 

tracker

leech seeds
 

Torrent description

Movie info

Title : Mind Hunters
Director : Renny Harlin
Year : 2005
Source : Dvd
Cast :Eion Bailey...Bobby Whitman
Clifton Collins Jr....Vince Sherman
Will Kemp...Rafe Perry
Val Kilmer...Jake Harris
Jonny Lee Miller...Lucas Harper
Kathryn Morris...Sara Moore
Christian Slater...J.D. Reston
LL Cool J...Gabe Jensen
Patricia Velasquez...Nicole Willis
Cassandra Bell...Jen
Plot
On a remote island, the FBI has a training program
for their psychological profiling division, called
"Mindhunters", used to track down serial killers. The
training goes horribly wrong, however, when a group
of seven young agents discover that one of them is a
serial killer, and is setting about slaying the others.
Can the few that are left figure out who the killer is
in time?

General
Format : AVI
Format/Info : Audio Video Interleave
File size : 703 MiB
Duration : 1h 45mn
Overall bit rate : 929 Kbps
Writing application : Lavf52.17.0

Video
Format : AVC
Format profile : Baseline@L1.3
Format settings, ReFrames : 1 frame
Codec ID : H264
Duration : 1h 45mn
Bit rate : 470 Kbps
Width : 704 pixels
Height : 302 pixels
Display aspect ratio : 2.35
Frame rate : 23.976 fps
Resolution : 24 bits
Colorimetry : 4:2:0
Scan type : Progressive
Bits/(Pixel*Frame) : 0.092
Stream size : 356 MiB (51%)
Writing library : x264 core 60
Encoding settings :

Audio
Format : AC-3
Format/Info : Audio Coding 3
Codec ID : 2000
Duration : 1h 45mn
Bit rate mode : Constant
Bit rate : 448 Kbps
Channel(s) : 6 channels
Channel positions : Front: L C R, Surround: L R, LFE
Sampling rate : 48.0 KHz
Stream size : 339 MiB (48%)
Alignment : Aligned on interleaves
Interleave, duration : 32 ms (0.77 video frame)
Interleave, preload duration : 32 ms

related torrents

Torrent name

health leech seeds Size

Mind Hunters

0 0 896.00 MB 0

924 Mind Hunters avi

2 0 667.30 MB 0
 

comments (0)

Main Menu