Action

Milos Brankovic (2008)

  • Download 5x Faster
  • Download torrent
  • Direct Download
  • Rate this torrent +  |  -
Milos Brankovic (2008)

Free and Direct Download with Usenet 300GB+ free


Torrent info

Name:Milos Brankovic (2008)

Total Size: 717.07 MB

Magnet: Magnet Link

Seeds: 8

Leechers: 8

Stream: Watch Online @ Movie4u

Last Updated: 2010-10-03 12:17:11 (Update Now)

Torrent added: 2009-08-22 04:50:05




Torrent Files List


www.yubraca.net (Size: 717.07 MB) (Files: 5)

 www.yubraca.net

  Who.The.Fuck.Is.Milos.Brankovic.2008.DVDRip.XviD-REACTOR

   Who.The.Fuck.Is.Milos.Brankovic.2008.DVDRip.XviD-REACTOR.avi

700.80 MB

   Subs

    Who.The.Fuck.Is.Milos.Brankovic.2008.DVDRip.XviD-REACTOR.sub

11.80 MB

    Who.The.Fuck.Is.Milos.Brankovic.2008.DVDRip.XviD-REACTOR.idx

164.91 KB

    rcr-wtfimb-subs.SFV

0.03 KB

   Sample

    rcr-wtfimb-sample.avi

4.31 MB
 

Announce URL: http://open.tracker.thepiratebay.org/announce

Torrent description

http://www.imdb.com/title/tt0930868/




Ovo je prica o zlocinu, kazni i pravdi. Ova poslednja je najveci gubitnik. Milos Brankovic je obican mlad covek, koji samo zeli da bude uspesan arhitekta i da voli Aleksandru. Bez razloga, postaje predmet maltretiranja ulicne bande i zrtva prevare. Zivot mu se pretvara u no?nu moru. Pokušavajuci da uzvrati, ubija nekoliko ljudi. Da li je ubica ili borac za pravdu? Ko je Milos Brankovic? Teska prica o zlim vremenima u Srbiji s pocetka 21. veka.



Release Date: May 2009 Subtitles: EN,MK,SI


Format : AVI
Format/Info : Audio Video Interleave
File size : 701 MiB
Duration : 1h 28mn
Overall bit rate : 1 108 Kbps
Writing application : VirtualDubMod 1.5.10.2 (build 2540/release)
Writing library : VirtualDub build 30091/release

Video
Format : MPEG-4 Visual
Format profile : Streaming [email protected]
Format settings, BVOP : Yes
Format settings, QPel : No
Format settings, GMC : No warppoints
Format settings, Matrix : Default
Codec ID : XVID
Codec ID/Hint : XviD
Duration : 1h 28mn
Bit rate : 965 Kbps
Width : 624 pixels
Height : 352 pixels
Display aspect ratio : 16/9
Frame rate : 25.000 fps
Resolution : 24 bits
Colorimetry : 4:2:0
Scan type : Progressive
Bits/(Pixel*Frame) : 0.176
Stream size : 611 MiB (87%)
Writing library : XviD 1.2.1 (UTC 2008-12-04)

Audio
Format : MPEG Audio
Codec ID : 55
Codec ID/Hint : MP3
Duration : 1h 28mn
Bit rate : 128 Kbps
Channel(s) : 2 channels
Sampling rate : 48.0 KHz
Stream size : 82.0 MiB (12%)
Alignment : Aligned on interleaves
Interleave, duration : 24 ms (0.60 video frame)
Interleave, preload duration : 1506 ms

related torrents

Torrent name

health leech seeds Size
 

comments (0)

Main Menu