Action

Maximum Overdrive 1986 DVDRip XviD [

  • Download 5x Faster
  • Download torrent
  • Direct Download
  • Rate this torrent +  |  -
Maximum Overdrive 1986 DVDRip XviD [

Free and Direct Download with Usenet 300GB+ free


Torrent info

Name:Maximum Overdrive 1986 DVDRip XviD [

Total Size: 700.24 MB

Magnet: Magnet Link

Seeds: 0

Leechers: 0

Stream: Watch Online @ Movie4u

Last Updated: 2010-09-29 20:29:45 (Update Now)

Torrent added: 2009-08-22 04:41:54




Torrent Files List


Maximum.nfo (Size: 700.24 MB) (Files: 51)

 Maximum.nfo

2.15 KB

 Maximum Overdrive.part49.rar

13.58 MB

 Maximum Overdrive.part48.rar

14.31 MB

 Maximum Overdrive.part47.rar

14.31 MB

 Maximum Overdrive.part46.rar

14.31 MB

 Maximum Overdrive.part45.rar

14.31 MB

 Maximum Overdrive.part44.rar

14.31 MB

 Maximum Overdrive.part43.rar

14.31 MB

 Maximum Overdrive.part42.rar

14.31 MB

 Maximum Overdrive.part41.rar

14.31 MB

 Maximum Overdrive.part40.rar

14.31 MB

 Maximum Overdrive.part39.rar

14.31 MB

 Maximum Overdrive.part38.rar

14.31 MB

 Maximum Overdrive.part37.rar

14.31 MB

 Maximum Overdrive.part36.rar

14.31 MB

 Maximum Overdrive.part35.rar

14.31 MB

 Maximum Overdrive.part34.rar

14.31 MB

 Maximum Overdrive.part33.rar

14.31 MB

 Maximum Overdrive.part32.rar

14.31 MB

 Maximum Overdrive.part31.rar

14.31 MB

 Maximum Overdrive.part30.rar

14.31 MB

 Maximum Overdrive.part29.rar

14.31 MB

 Maximum Overdrive.part28.rar

14.31 MB

 Maximum Overdrive.part27.rar

14.31 MB

 Maximum Overdrive.part26.rar

14.31 MB

 Maximum Overdrive.part25.rar

14.31 MB

 Maximum Overdrive.part24.rar

14.31 MB

 Maximum Overdrive.part23.rar

14.31 MB

 Maximum Overdrive.part22.rar

14.31 MB

 Maximum Overdrive.part21.rar

14.31 MB

 Maximum Overdrive.part20.rar

14.31 MB

 Maximum Overdrive.part19.rar

14.31 MB

 Maximum Overdrive.part18.rar

14.31 MB

 Maximum Overdrive.part17.rar

14.31 MB

 Maximum Overdrive.part16.rar

14.31 MB

 Maximum Overdrive.part15.rar

14.31 MB

 Maximum Overdrive.part14.rar

14.31 MB

 Maximum Overdrive.part13.rar

14.31 MB

 Maximum Overdrive.part12.rar

14.31 MB

 Maximum Overdrive.part11.rar

14.31 MB

 Maximum Overdrive.part10.rar

14.31 MB

 Maximum Overdrive.part09.rar

14.31 MB

 Maximum Overdrive.part08.rar

14.31 MB

 Maximum Overdrive.part07.rar

14.31 MB

 Maximum Overdrive.part06.rar

14.31 MB

 Maximum Overdrive.part05.rar

14.31 MB

 Maximum Overdrive.part04.rar

14.31 MB

 Maximum Overdrive.part03.rar

14.31 MB

 Maximum Overdrive.part02.rar

14.31 MB

 Maximum Overdrive.part01.sfv

5.21 KB

 Maximum Overdrive.part01.rar

14.31 MB
 

Announce URL: http://tracker.ilovetorrents.com/announce.php

Torrent description

Format : AVI
Format/Info : Audio Video Interleave
File size : 700 MiB
Duration : 1h 37mn
Overall bit rate : 1 002 Kbps
Writing application : VirtualDubMod 1.5.4.1 (build 2178/release)
Writing library : VirtualDubMod build 2178/release

Video
Format : MPEG-4 Visual
Format profile : Streaming [email protected]
Format settings, BVOP : Yes
Format settings, QPel : No
Format settings, GMC : No warppoints
Format settings, Matrix : Custom
Codec ID : XVID
Codec ID/Hint : XviD
Duration : 1h 37mn
Bit rate : 856 Kbps
Width : 640 pixels
Height : 272 pixels
Display aspect ratio : 2.35
Frame rate : 23.976 fps
Resolution : 24 bits
Colorimetry : 4:2:0
Scan type : Progressive
Bits/(Pixel*Frame) : 0.205
Stream size : 598 MiB (85%)
Writing library : XviD 1.2.0.dev47 (UTC 2006-11-01)

Audio
Format : MPEG Audio
Format version : Version 1
Format profile : Layer 3
Codec ID : 55
Codec ID/Hint : MP3
Duration : 1h 37mn
Bit rate mode : Variable
Bit rate : 134 Kbps
Minimum bit rate : 144 Kbps
Channel(s) : 2 channels
Sampling rate : 48.0 KHz
Resolution : 16 bits
Stream size : 93.5 MiB (13%)
Alignment : Aligned on interleaves
Interleave, duration : 24 ms (0.58 video frame)
Interleave, preload duration : 137 ms
Writing library : LAME3.97
Encoding settings : ABR
Language : English



When the tail of rogue comet Rhea-M passes through Earth's atmosphere, humanity's worst nightmares come to life as machines gradually develop minds of their own, turning on their creators in bloody rebellion. At the Dixie Boy truck stop just outside Wilmington, North Carolina, both workers and patrons alike are coming to grips with the horror as a series of increasingly bizarre accidents occur, some injurious, some near-fatal, and some fatal. The terror finally comes to a head when the parked trucks - led by one for a toy company which sports a demonically-smiling goblin face - each start up on their own, circling the truck stop and preventing anyone from getting in or out. Trapped by the trucks and an emotionless manager (Pat Hingle), a young ex-con (Emilio Estevez) takes it upon himself to lead the rescue of anyone in the immediate vicinity who's life is in danger, and to ultimately escape the truck stop and head to safety. Unfortunately, things become more complicated when a machine-gun-mounted mobile platform orders each of the humans to pump gasoline for the trucks. Pitted against an army of machines demonized by an unknown phenomenon, the people trapped in the Dixie Boy truck stop must use stealth and a concealed arsenal to escape. In the meantime, they realize that there is more to the tail of Rhea-M than they initially thought.

related torrents

Torrent name

health leech seeds Size
 

comments (0)

Main Menu