Action

LUCK DVDRIP

  • Download 5x Faster
  • Download torrent
  • Direct Download
  • Rate this torrent +  |  -
LUCK DVDRIP

Free and Direct Download with Usenet 300GB+ free


Torrent info

Name:LUCK DVDRIP

Total Size: 2.70 GB

Magnet: Magnet Link

Seeds: 25

Leechers: 1

Stream: Watch Online @ Movie4u

Last Updated: 2010-12-06 10:21:47 (Update Now)

Torrent added: 2009-08-22 04:30:15




Torrent Files List


VIDEO_TS.IFO (Size: 2.70 GB) (Files: 13)

 VIDEO_TS.IFO

14.00 KB

 VTS_02_0.BUP

58.00 KB

 VIDEO_TS.BUP

14.00 KB

 VTS_02_0.IFO

58.00 KB

 VTS_01_0.IFO

60.00 KB

 VTS_01_0.BUP

60.00 KB

 VIDEO_TS.VOB

9.69 MB

 VTS_01_0.VOB

58.46 MB

 VTS_02_0.VOB

59.35 MB

 VTS_01_2.VOB

314.40 MB

 VTS_02_2.VOB

272.28 MB

 VTS_02_1.VOB

1.00 GB

 VTS_01_1.VOB

1.00 GB
 

Announce URL: http://www.bwtorrents.com:6969/Perseus.asmx/announce?passkey=f56b2f14509fde0833afe163c2d24263

Torrent description

Video
Format : MPEG-4 Visual
Format profile : Streaming [email protected]
Format settings, BVOP : Yes
Format settings, QPel : No
Format settings, GMC : No warppoints
Format settings, Matrix : Default
Codec ID : XVID
Codec ID/Hint : XviD
Duration : 2h 5mn
Bit rate : 672 Kbps
Width : 640 pixels
Height : 272 pixels
Display aspect ratio : 2.35
Frame rate : 23.976 fps
Resolution : 24 bits
Colorimetry : 4:2:0
Scan type : Progressive
Bits/(Pixel*Frame) : 0.161
Stream size : 602 MiB (87%)
Writing library : XviD 50

Sample Coming in a While!!

Audio
Format : MPEG Audio
Format version : Version 1
Format profile : Layer 3
Codec ID : 55
Codec ID/Hint : MP3
Bit rate mode : Constant
Bit rate : 96.0 Kbps
Minimum bit rate : 96.0 Kbps
Channel(s) : 2 channels
Sampling rate : 32.0 KHz
Resolution : 16 bits
Stream size : 86.0 MiB (12%)
Alignment : Aligned on interleaves
Interleave, duration : 1072 ms (25.71 video frames)
Interleave, preload duration : 216 ms
Title : VTS_01_1 T80 2_0ch 192Kbps DELAY 0ms
Writing library : LAME3.98r
Encoding settings : CBR

LUCK DVDRIP preview 0

<a href="LUCK DVDRIP preview 1/" target="_blank"><img src="LUCK DVDRIP preview 4" border="0" alt="LUCK DVDRIP preview 2"/>" border="0" alt="Free Image Hosting at www.ImageShack.us" /></a><br /><br /><a href="LUCK DVDRIP preview 3" title="QuickPost"><img src="http://imageshack.us/img/butansn.png" alt="QuickPost" border="0"></a> Quickpost this image to Myspace, Digg, Facebook, and others!

LUCK DVDRIP preview 4" border="0" alt="LUCK DVDRIP preview 2"/>

related torrents

Torrent name

health leech seeds Size
 

comments (0)

Main Menu