Action

Le fabuleux destin d'Am?lie Poulain 2001 DVDRip [H 264 MP4 AAC] ~ Mindbreaker

  • Download 5x Faster
  • Download torrent
  • Direct Download
  • Rate this torrent +  |  -
Le fabuleux destin d'Am?lie Poulain 2001 DVDRip [H 264 MP4 AAC] ~ Mindbreaker

Free and Direct Download with Usenet.nl 300GB+ free


Torrent info

Name:Le fabuleux destin d'Am?lie Poulain 2001 DVDRip [H 264 MP4 AAC] ~ Mindbreaker

Total Size: 1.76 GB

Magnet: Magnet Link

Seeds: 0

Leechers: 0

Stream: Watch Online @ Movie4u

Last Updated: 2016-02-03 06:06:52 (Update Now)

Torrent added: 2009-08-22 03:57:21





Torrent Files List


Subtitles (Size: 1.76 GB) (Files: 9)

 Subtitles

  Le fabuleux destin d'Amélie Poulain 2001 DVDRip [H.264-MP4-AAC] ~ Mindbreaker - English.srt

79.25 KB

  Le fabuleux destin d'Amélie Poulain 2001 DVDRip [H.264-MP4-AAC] ~ Mindbreaker - Dutch.srt

80.76 KB

 Screenshots

  Le fabuleux destin d'Amélie Poulain - 003.png

632.40 KB

  Le fabuleux destin d'Amélie Poulain - 002.png

813.78 KB

  Le fabuleux destin d'Amélie Poulain - 001.png

803.46 KB

 Le fabuleux destin d'Amélie Poulain 2001 DVDRip [H.264-MP4-AAC] ~ Mindbreaker.nfo

1.48 KB

 Le fabuleux destin d'Amélie Poulain 2001 DVDRip [H.264-MP4-AAC] ~ Mindbreaker.mp4

1.76 GB

 Covers

  Le fabuleux destin d'Amélie Poulain - Front.jpg

283.69 KB

  Le fabuleux destin d'Amélie Poulain - CD.jpg

118.56 KB
 

tracker

leech seeds
 

Torrent description

Le fabuleux destin d'Am?lie Poulain 2001 DVDRip [H 264 MP4 AAC] ~ Mindbreaker preview 0

imdb : http://www.imdb.com/title/tt0211915/
Tagline: One person can change your life forever.
Plot: Amelie, an innocent and naive girl in Paris, with her own sense of justice, decides to help those around her and along the way, discovers love.
Total Size : 1.76 GB

General
Complete name : Le fabuleux destin d'Am?lie Poulain 2001 DVDRip [H.264-MP4-AAC] ~ Mindbreaker.mp4
Format : H.264/AAC/MP4 - Anamophic
Source : DVD (retail)
File size : 1.76 GiB
Duration : 1h 56mn
Overall bit rate : 2 164 Kbps


Video
ID : 1
Format : AVC
Format/Info : Advanced Video Codec
Format profile : [email protected]
Duration : 1h 56mn
Bit rate : 2 000 Kbps
Width : 716 pixels
Height : 436 pixels
Display aspect ratio : 2.403
Frame rate : 25.000 fps
Bits/(Pixel*Frame) : 0.256
Stream size : 1.63 GiB (92%)
Writing library : x264 core 65

Audio
ID : 2
Format : AAC
Format/Info : Advanced Audio Codec
Format profile : LC
Duration : 1h 56mn
Bit rate : 160 Kbps
Channel(s) : 2 channels
Sampling rate : 48.0 KHz
Stream size : 133 MiB (7%)
Language : French

Subtitle
Format : SubRip
Language : Dutch & English

XBOX360 & PS3 COMPATIBLE


Le fabuleux destin d'Am?lie Poulain 2001 DVDRip [H 264 MP4 AAC] ~ Mindbreaker preview 1
Le fabuleux destin d'Am?lie Poulain 2001 DVDRip [H 264 MP4 AAC] ~ Mindbreaker preview 2
Le fabuleux destin d'Am?lie Poulain 2001 DVDRip [H 264 MP4 AAC] ~ Mindbreaker preview 3

http://genesis.1337x.org:1337/announce
http://open.tracker.thepiratebay.org/announce

Le fabuleux destin d'Am?lie Poulain 2001 DVDRip [H 264 MP4 AAC] ~ Mindbreaker preview 4

related torrents

Torrent name

health leech seeds Size
 

comments (0)

Main Menu