Action

Kiss Of Death 1995 DVDRip XviD [

  • Download 5x Faster
  • Download torrent
  • Direct Download
  • Rate this torrent +  |  -
Kiss Of Death 1995 DVDRip XviD [

Free and Direct Download with Usenet.nl 300GB+ free


Torrent info

Name:Kiss Of Death 1995 DVDRip XviD [

Total Size: 700.26 MB

Magnet: Magnet Link

Seeds: 0

Leechers: 0

Stream: Watch Online @ Movie4u

Last Updated: 2011-01-08 15:49:16 (Update Now)

Torrent added: 2009-08-22 03:23:05





Torrent Files List


KOD.nfo (Size: 700.26 MB) (Files: 51)

 KOD.nfo

2.16 KB

 Kiss Of Death.part49.rar

13.61 MB

 Kiss Of Death.part47.rar

14.31 MB

 Kiss Of Death.part48.rar

14.31 MB

 Kiss Of Death.part46.rar

14.31 MB

 Kiss Of Death.part45.rar

14.31 MB

 Kiss Of Death.part44.rar

14.31 MB

 Kiss Of Death.part43.rar

14.31 MB

 Kiss Of Death.part42.rar

14.31 MB

 Kiss Of Death.part41.rar

14.31 MB

 Kiss Of Death.part40.rar

14.31 MB

 Kiss Of Death.part38.rar

14.31 MB

 Kiss Of Death.part39.rar

14.31 MB

 Kiss Of Death.part37.rar

14.31 MB

 Kiss Of Death.part35.rar

14.31 MB

 Kiss Of Death.part36.rar

14.31 MB

 Kiss Of Death.part34.rar

14.31 MB

 Kiss Of Death.part32.rar

14.31 MB

 Kiss Of Death.part33.rar

14.31 MB

 Kiss Of Death.part31.rar

14.31 MB

 Kiss Of Death.part30.rar

14.31 MB

 Kiss Of Death.part28.rar

14.31 MB

 Kiss Of Death.part29.rar

14.31 MB

 Kiss Of Death.part27.rar

14.31 MB

 Kiss Of Death.part26.rar

14.31 MB

 Kiss Of Death.part25.rar

14.31 MB

 Kiss Of Death.part23.rar

14.31 MB

 Kiss Of Death.part24.rar

14.31 MB

 Kiss Of Death.part22.rar

14.31 MB

 Kiss Of Death.part20.rar

14.31 MB

 Kiss Of Death.part21.rar

14.31 MB

 Kiss Of Death.part19.rar

14.31 MB

 Kiss Of Death.part18.rar

14.31 MB

 Kiss Of Death.part16.rar

14.31 MB

 Kiss Of Death.part17.rar

14.31 MB

 Kiss Of Death.part15.rar

14.31 MB

 Kiss Of Death.part14.rar

14.31 MB

 Kiss Of Death.part13.rar

14.31 MB

 Kiss Of Death.part11.rar

14.31 MB

 Kiss Of Death.part12.rar

14.31 MB

 Kiss Of Death.part10.rar

14.31 MB

 Kiss Of Death.part09.rar

14.31 MB

 Kiss Of Death.part08.rar

14.31 MB

 Kiss Of Death.part07.rar

14.31 MB

 Kiss Of Death.part06.rar

14.31 MB

 Kiss Of Death.part05.rar

14.31 MB

 Kiss Of Death.part04.rar

14.31 MB

 Kiss Of Death.part03.rar

14.31 MB

 Kiss Of Death.part02.rar

14.31 MB

 Kiss Of Death.part01.sfv

4.82 KB

 Kiss Of Death.part01.rar

14.31 MB
 

Announce URL: http://tracker.ilovetorrents.com/announce.php

Torrent description

Jimmy Kilmartin's an ex-con who's trying to go straight. But he can't say no to a quick driving job because his so called friend's life is threatened. The job is for Little Junior Brown, a violent and powerful villain. When things go wrong, Jimmy is left to do the time, and his whole life is turned upside-down, but if that wasn't enough, the cops won't leave Jimmy alone when he gets out... They want 'Little Junior'



Format : AVI
Format/Info : Audio Video Interleave
File size : 700 MiB
Duration : 1h 40mn
Overall bit rate : 972 Kbps
Writing application : VirtualDubMod 1.5.10.2 (build 2540/release)
Writing library : VirtualDubMod build 2540/release

Video
Format : MPEG-4 Visual
Format profile : Streaming [email protected]
Format settings, BVOP : Yes
Format settings, QPel : No
Format settings, GMC : No warppoints
Format settings, Matrix : Default
Muxing mode : Packed bitstream
Codec ID : XVID
Codec ID/Hint : XviD
Duration : 1h 40mn
Bit rate : 835 Kbps
Width : 576 pixels
Height : 304 pixels
Display aspect ratio : 1.895
Frame rate : 23.976 fps
Resolution : 24 bits
Colorimetry : 4:2:0
Scan type : Progressive
Bits/(Pixel*Frame) : 0.199
Stream size : 602 MiB (86%)
Writing library : XviD 1.1.2 (UTC 2006-11-01)

Audio
Format : MPEG Audio
Format version : Version 1
Format profile : Layer 3
Codec ID : 55
Codec ID/Hint : MP3
Duration : 1h 40mn
Bit rate mode : Variable
Bit rate : 124 Kbps
Nominal bit rate : 128 Kbps
Channel(s) : 2 channels
Sampling rate : 48.0 KHz
Resolution : 16 bits
Stream size : 89.4 MiB (13%)
Alignment : Aligned on interleaves
Interleave, duration : 24 ms (0.58 video frame)
Interleave, preload duration : 148 ms
Writing library : LAME3.90.
Encoding settings : ABR

Link: http://www.imdb.com/title/tt0113552/

related torrents

Torrent name

health leech seeds Size
 

comments (0)

Main Menu