Action

KILL SWITCH [2008]@KIDZCORNER H 264 RIP

  • Download 5x Faster
  • Download torrent
  • Direct Download
  • Rate this torrent +  |  -
KILL SWITCH [2008]@KIDZCORNER H 264 RIP

Anonymous and Free Direct Download 300GB+


Torrent info

Name:KILL SWITCH [2008]@KIDZCORNER H 264 RIP

Total Size: 694.42 MB

Magnet: Magnet Link

Seeds: 4

Leechers: 5

Stream: Watch Online @ Movie4u

Last Updated: 2011-01-09 11:44:23 (Update Now)

Torrent added: 2009-08-22 03:16:32



VPN For Torrents

Torrent Files List


Torrent downloaded from Demonoid.com-3.txt (Size: 694.42 MB) (Files: 4)

 Torrent downloaded from Demonoid.com-3.txt

0.05 KB

 KS2008.mp4

690.93 MB

 [AllCDCovers]_kill_switch_2008_ws_r1_retail_dvd-front.jpg

2.89 MB

 [AllCDCovers]_kill_switch_2008_ws_r1_retail_dvd-cd.jpg

606.59 KB
 

Announce URL: http://inferno.demonoid.com:3410/announce

Torrent description

Description

Detective Jacob King (Steven Seagal) is one of the most celebrated homicide detectives in the country. His brutal delivery of street justice is legendary among the men and women of law enforcement. But on this latest case, he may have finally met his match in Lazereus, a cunning and perversely violent killer who is on the loose and terrorizing the inner city. King?s desperate pursuit of Lazareus takes him into the dark, depraved Memphis underworld of street sex and senseless violence.

Format : MPEG-4
Format profile : Base Media / Version 2
Codec ID : mp42
File size : 691 MiB
Duration : 1h 32mn
Overall bit rate : 1 044 Kbps
Encoded date : UTC 2009-04-12 12:05:01
Tagged date : UTC 2009-04-12 16:49:35
Writing application : HandBrake 0.9.3 2008112300

Video
Format : AVC
Format/Info : Advanced Video Codec
Format profile : [email protected]
Format settings, CABAC : Yes
Format settings, ReFrames : 3 frames
Codec ID : avc1
Codec ID/Info : Advanced Video Coding
Duration : 1h 32mn
Bit rate mode : Variable
Bit rate : 881 Kbps
Nominal bit rate : 894 Kbps
Width : 716 pixels
Height : 572 pixels
Display aspect ratio : 16/9
Frame rate mode : Variable
Frame rate : 25.000 fps
Minimum frame rate : 12.500 fps
Maximum frame rate : 25.000 fps
Resolution : 24 bits
Colorimetry : 4:2:0
Scan type : Progressive
Bits/(Pixel*Frame) : 0.086
Stream size : 583 MiB (84%)
Writing library : x264 core 65
: UTC 2009-04-12 16:49:35

Audio
Format : AAC
Format/Info : Advanced Audio Codec
Format version : Version 4
Format profile : LC
Format settings, SBR : No
Codec ID : 40
Duration : 1h 32mn
Bit rate mode : Variable
Bit rate : 160 Kbps
Maximum bit rate : 222 Kbps
Channel(s) : 2 channels
Channel positions : L R
Sampling rate : 48.0 KHz
Resolution : 16 bits
Stream size : 106 MiB (15%)
Language : English
Encoded date : UTC 2009-04-12 12:05:02
Tagged date : UTC 2009-04-12 16:49:28

related torrents

Torrent name

health leech seeds Size
 


comments (0)

Main Menu