Action

KickBoxer 5 Redemption 1995 DvdRip Divx[

  • Download 5x Faster
  • Download torrent
  • Direct Download
  • Rate this torrent +  |  -
KickBoxer 5 Redemption 1995 DvdRip Divx[

Download FREE And Anonymously


Torrent info

Name:KickBoxer 5 Redemption 1995 DvdRip Divx[

Total Size: 700.64 MB

Magnet: Magnet Link

Seeds: 0

Leechers: 0

Stream: Watch Full Movie @ Movie4u

Last Updated: 2010-10-07 18:09:56 (Update Now)

Torrent added: 2009-08-22 03:11:58



VPN For Torrents

Torrent Files List


Kickboxer 5.sfv (Size: 700.64 MB) (Files: 51)

 Kickboxer 5.sfv

4.61 KB

 Kickboxer 5.part49.rar

13.99 MB

 Kickboxer 5.part48.rar

14.31 MB

 Kickboxer 5.part47.rar

14.31 MB

 Kickboxer 5.part46.rar

14.31 MB

 Kickboxer 5.part45.rar

14.31 MB

 Kickboxer 5.part44.rar

14.31 MB

 Kickboxer 5.part43.rar

14.31 MB

 Kickboxer 5.part42.rar

14.31 MB

 Kickboxer 5.part41.rar

14.31 MB

 Kickboxer 5.part40.rar

14.31 MB

 Kickboxer 5.part39.rar

14.31 MB

 Kickboxer 5.part38.rar

14.31 MB

 Kickboxer 5.part37.rar

14.31 MB

 Kickboxer 5.part36.rar

14.31 MB

 Kickboxer 5.part35.rar

14.31 MB

 Kickboxer 5.part34.rar

14.31 MB

 Kickboxer 5.part33.rar

14.31 MB

 Kickboxer 5.part32.rar

14.31 MB

 Kickboxer 5.part31.rar

14.31 MB

 Kickboxer 5.part30.rar

14.31 MB

 Kickboxer 5.part29.rar

14.31 MB

 Kickboxer 5.part28.rar

14.31 MB

 Kickboxer 5.part27.rar

14.31 MB

 Kickboxer 5.part26.rar

14.31 MB

 Kickboxer 5.part25.rar

14.31 MB

 Kickboxer 5.part24.rar

14.31 MB

 Kickboxer 5.part23.rar

14.31 MB

 Kickboxer 5.part22.rar

14.31 MB

 Kickboxer 5.part21.rar

14.31 MB

 Kickboxer 5.part20.rar

14.31 MB

 Kickboxer 5.part19.rar

14.31 MB

 Kickboxer 5.part18.rar

14.31 MB

 Kickboxer 5.part17.rar

14.31 MB

 Kickboxer 5.part16.rar

14.31 MB

 Kickboxer 5.part15.rar

14.31 MB

 Kickboxer 5.part14.rar

14.31 MB

 Kickboxer 5.part13.rar

14.31 MB

 Kickboxer 5.part12.rar

14.31 MB

 Kickboxer 5.part11.rar

14.31 MB

 Kickboxer 5.part10.rar

14.31 MB

 Kickboxer 5.part09.rar

14.31 MB

 Kickboxer 5.part08.rar

14.31 MB

 Kickboxer 5.part07.rar

14.31 MB

 Kickboxer 5.part06.rar

14.31 MB

 Kickboxer 5.part05.rar

14.31 MB

 Kickboxer 5.part04.rar

14.31 MB

 Kickboxer 5.part03.rar

14.31 MB

 Kickboxer 5.part02.rar

14.31 MB

 Kickboxer 5.part01.rar

14.31 MB

 Kickboxer 5.nfo

2.10 KB
 

Announce URL: http://tracker.ilovetorrents.com/announce.php

Torrent description

General
Complete name : C:\Torrent Creation\KickBoxer 5 - Redemption 1995\Kickboxer 5.avi
Format : AVI
Format/Info : Audio Video Interleave
File size : 701 MiB
Duration : 1h 27mn
Overal bit rate : 1120 Kbps
Writing application : VirtualDubMod 1.5.4.1 (build 2178/release)
Writing library : VirtualDubMod build 2178/release
IAS1 : English

Video
Format : MPEG-4 Visual
Format settings, BVOP : Yes
Format settings, QPel : No
Format settings, GMC : No warppoints
Format settings, Matrix : Default
Muxing mode : Packet Bitstream
Codec ID : DX50
Codec ID/Hint : DivX 5
Duration : 1h 27mn
Bit rate : 976 Kbps
Width : 496 pixels
Height : 384 pixels
Display aspect ratio : 1.292
Frame rate : 23.976 fps
Resolution : 8 bits
Colorimetry : 4:2:0
Scan type : Progressive
Bits/(Pixel*Frame) : 0.214
Stream size : 611 MiB
Writing library : DivX 5.2.1 (WaffleDay) (UTC 2004-09-08)

Audio
Format : MPEG Audio
Format version : Version 1
Format profile : Layer 3
Codec ID : 55
Codec ID/Hint : MP3
Duration : 1h 27mn
Bit rate mode : Variable
Bit rate : 131 Kbps
Minimum bit rate : 128 Kbps
Channel(s) : 2 channels
Sampling rate : 48.0 KHz
Resolution : 16 bits
Stream size : 82.0 MiB
Writing library : LAME3.96r
Encoding settings : ABR


Link: http://www.imdb.com/title/tt0110256/

related torrents

Torrent name

health leech seeds Size

Kickboxer 5 (1995) DVDRip

0 0 701.52 MB 0
 


comments (0)

Main Menu

 

script data-cfasync="false" src="//d2ghscazvn398x.cloudfront.net/?cshgd=690275">