Action

KickBoxer 4 The Aggressor 1994 DvdRip Xvid[

  • Download 5x Faster
  • Download torrent
  • Direct Download
  • Rate this torrent +  |  -
KickBoxer 4 The Aggressor 1994 DvdRip Xvid[

Free and Direct Download with Usenet.nl 300GB+ free


Torrent info

Name:KickBoxer 4 The Aggressor 1994 DvdRip Xvid[

Total Size: 699.35 MB

Magnet: Magnet Link

Seeds: 0

Leechers: 0

Stream: Watch Online @ Movie4u

Last Updated: 2012-08-12 14:04:51 (Update Now)

Torrent added: 2009-08-22 03:11:56





Torrent Files List


Kickboxer 4 - The Aggressor.sfv (Size: 699.35 MB) (Files: 51)

 Kickboxer 4 - The Aggressor.sfv

6.27 KB

 Kickboxer 4 - The Aggressor.part49.rar

12.69 MB

 Kickboxer 4 - The Aggressor.part48.rar

14.31 MB

 Kickboxer 4 - The Aggressor.part47.rar

14.31 MB

 Kickboxer 4 - The Aggressor.part46.rar

14.31 MB

 Kickboxer 4 - The Aggressor.part45.rar

14.31 MB

 Kickboxer 4 - The Aggressor.part44.rar

14.31 MB

 Kickboxer 4 - The Aggressor.part43.rar

14.31 MB

 Kickboxer 4 - The Aggressor.part42.rar

14.31 MB

 Kickboxer 4 - The Aggressor.part41.rar

14.31 MB

 Kickboxer 4 - The Aggressor.part40.rar

14.31 MB

 Kickboxer 4 - The Aggressor.part39.rar

14.31 MB

 Kickboxer 4 - The Aggressor.part38.rar

14.31 MB

 Kickboxer 4 - The Aggressor.part37.rar

14.31 MB

 Kickboxer 4 - The Aggressor.part36.rar

14.31 MB

 Kickboxer 4 - The Aggressor.part35.rar

14.31 MB

 Kickboxer 4 - The Aggressor.part34.rar

14.31 MB

 Kickboxer 4 - The Aggressor.part33.rar

14.31 MB

 Kickboxer 4 - The Aggressor.part32.rar

14.31 MB

 Kickboxer 4 - The Aggressor.part31.rar

14.31 MB

 Kickboxer 4 - The Aggressor.part30.rar

14.31 MB

 Kickboxer 4 - The Aggressor.part29.rar

14.31 MB

 Kickboxer 4 - The Aggressor.part28.rar

14.31 MB

 Kickboxer 4 - The Aggressor.part27.rar

14.31 MB

 Kickboxer 4 - The Aggressor.part26.rar

14.31 MB

 Kickboxer 4 - The Aggressor.part25.rar

14.31 MB

 Kickboxer 4 - The Aggressor.part24.rar

14.31 MB

 Kickboxer 4 - The Aggressor.part23.rar

14.31 MB

 Kickboxer 4 - The Aggressor.part22.rar

14.31 MB

 Kickboxer 4 - The Aggressor.part21.rar

14.31 MB

 Kickboxer 4 - The Aggressor.part20.rar

14.31 MB

 Kickboxer 4 - The Aggressor.part19.rar

14.31 MB

 Kickboxer 4 - The Aggressor.part18.rar

14.31 MB

 Kickboxer 4 - The Aggressor.part17.rar

14.31 MB

 Kickboxer 4 - The Aggressor.part16.rar

14.31 MB

 Kickboxer 4 - The Aggressor.part15.rar

14.31 MB

 Kickboxer 4 - The Aggressor.part14.rar

14.31 MB

 Kickboxer 4 - The Aggressor.part13.rar

14.31 MB

 Kickboxer 4 - The Aggressor.part12.rar

14.31 MB

 Kickboxer 4 - The Aggressor.part11.rar

14.31 MB

 Kickboxer 4 - The Aggressor.part10.rar

14.31 MB

 Kickboxer 4 - The Aggressor.part09.rar

14.31 MB

 Kickboxer 4 - The Aggressor.part08.rar

14.31 MB

 Kickboxer 4 - The Aggressor.part07.rar

14.31 MB

 Kickboxer 4 - The Aggressor.part06.rar

14.31 MB

 Kickboxer 4 - The Aggressor.part05.rar

14.31 MB

 Kickboxer 4 - The Aggressor.part04.rar

14.31 MB

 Kickboxer 4 - The Aggressor.part03.rar

14.31 MB

 Kickboxer 4 - The Aggressor.part02.rar

14.31 MB

 Kickboxer 4 - The Aggressor.part01.rar

14.31 MB

 Kickboxer 4 - The Aggressor.nfo

2.00 KB
 

Announce URL: http://tracker.ilovetorrents.com/announce.php

Torrent description

General
Complete name : C:\Torrent Creation\KickBoxer 4 - The Aggressor 1994\Kickboxer 4 - The Aggressor.avi
Format : AVI
Format/Info : Audio Video Interleave
File size : 699 MiB
Duration : 1h 26mn
Overal bit rate : 1132 Kbps
Writing application : Nandub v1.0rc2
Writing library : Nandub build 1852/release

Video
Format : MPEG-4 Visual
Format profile : Streaming [email protected]
Format settings, BVOP : No
Format settings, QPel : No
Format settings, GMC : No warppoints
Format settings, Matrix : Default
Codec ID : XVID
Codec ID/Hint : XviD
Duration : 1h 26mn
Bit rate : 983 Kbps
Width : 448 pixels
Height : 336 pixels
Display aspect ratio : 4/3
Frame rate : 25.000 fps
Resolution : 8 bits
Colorimetry : 4:2:0
Scan type : Progressive
Bits/(Pixel*Frame) : 0.261
Stream size : 607 MiB
Writing library : XviD 1.0.0 Beta2.5 (UTC 2003-12-18)

Audio
Format : MPEG Audio
Format version : Version 1
Format profile : Layer 3
Codec ID : 55
Codec ID/Hint : MP3
Duration : 1h 26mn
Bit rate mode : Variable
Bit rate : 137 Kbps
Channel(s) : 2 channels
Sampling rate : 48.0 KHz
Resolution : 16 bits
Stream size : 84.4 MiB
Writing library : LAME3.92
Encoding settings : VBR (mtrh)


Link: http://www.imdb.com/title/tt0110255/

related torrents

Torrent name

health leech seeds Size
 

comments (0)

Main Menu