Action

KickBoxer 3 The Art of War 1992 DvdRip Xvid[

  • Download 5x Faster
  • Download torrent
  • Direct Download
  • Rate this torrent +  |  -
KickBoxer 3 The Art of War 1992 DvdRip Xvid[

Anonymous and Free Direct Download 300GB+


Torrent info

Name:KickBoxer 3 The Art of War 1992 DvdRip Xvid[

Total Size: 699.46 MB

Magnet: Magnet Link

Seeds: 0

Leechers: 0

Stream: Watch Online @ Movie4u

Last Updated: 0000-00-00 00:00:00 (Update Now)

Torrent added: 2009-08-22 03:11:53



VPN For Torrents

Torrent Files List


kickboxer 3.sfv (Size: 699.46 MB) (Files: 51)

 kickboxer 3.sfv

4.61 KB

 kickboxer 3.part49.rar

12.81 MB

 kickboxer 3.part47.rar

14.31 MB

 kickboxer 3.part48.rar

14.31 MB

 kickboxer 3.part45.rar

14.31 MB

 kickboxer 3.part46.rar

14.31 MB

 kickboxer 3.part44.rar

14.31 MB

 kickboxer 3.part43.rar

14.31 MB

 kickboxer 3.part42.rar

14.31 MB

 kickboxer 3.part41.rar

14.31 MB

 kickboxer 3.part40.rar

14.31 MB

 kickboxer 3.part39.rar

14.31 MB

 kickboxer 3.part38.rar

14.31 MB

 kickboxer 3.part37.rar

14.31 MB

 kickboxer 3.part36.rar

14.31 MB

 kickboxer 3.part35.rar

14.31 MB

 kickboxer 3.part34.rar

14.31 MB

 kickboxer 3.part33.rar

14.31 MB

 kickboxer 3.part32.rar

14.31 MB

 kickboxer 3.part31.rar

14.31 MB

 kickboxer 3.part30.rar

14.31 MB

 kickboxer 3.part28.rar

14.31 MB

 kickboxer 3.part29.rar

14.31 MB

 kickboxer 3.part26.rar

14.31 MB

 kickboxer 3.part27.rar

14.31 MB

 kickboxer 3.part24.rar

14.31 MB

 kickboxer 3.part25.rar

14.31 MB

 kickboxer 3.part23.rar

14.31 MB

 kickboxer 3.part22.rar

14.31 MB

 kickboxer 3.part21.rar

14.31 MB

 kickboxer 3.part19.rar

14.31 MB

 kickboxer 3.part20.rar

14.31 MB

 kickboxer 3.part17.rar

14.31 MB

 kickboxer 3.part18.rar

14.31 MB

 kickboxer 3.part15.rar

14.31 MB

 kickboxer 3.part16.rar

14.31 MB

 kickboxer 3.part14.rar

14.31 MB

 kickboxer 3.part13.rar

14.31 MB

 kickboxer 3.part12.rar

14.31 MB

 kickboxer 3.part11.rar

14.31 MB

 kickboxer 3.part09.rar

14.31 MB

 kickboxer 3.part10.rar

14.31 MB

 kickboxer 3.part08.rar

14.31 MB

 kickboxer 3.part07.rar

14.31 MB

 kickboxer 3.part06.rar

14.31 MB

 kickboxer 3.part05.rar

14.31 MB

 kickboxer 3.part04.rar

14.31 MB

 kickboxer 3.part03.rar

14.31 MB

 kickboxer 3.part02.rar

14.31 MB

 kickboxer 3.part01.rar

14.31 MB

 kickboxer 3.nfo

2.05 KB
 

Announce URL: http://tracker.ilovetorrents.com/announce.php

Torrent description

General
Complete name : C:\Torrent Creation\KickBoxer 3 - The Art of War 1992\kickboxer 3.avi
Format : AVI
Format/Info : Audio Video Interleave
File size : 699 MiB
Duration : 1h 31mn
Overal bit rate : 1065 Kbps
Writing application : FairUse Wizard - http://fairusewizard.com
Writing library : The best and REALLY easy backup tool

Video
Format : MPEG-4 Visual
Format profile : Streaming [email protected]
Format settings, BVOP : Yes
Format settings, QPel : No
Format settings, GMC : No warppoints
Format settings, Matrix : Default
Codec ID : XVID
Codec ID/Hint : XviD
Duration : 1h 31mn
Bit rate : 928 Kbps
Width : 528 pixels
Height : 384 pixels
Display aspect ratio : 1.375
Frame rate : 25.000 fps
Resolution : 8 bits
Colorimetry : 4:2:0
Scan type : Progressive
Bits/(Pixel*Frame) : 0.183
Stream size : 609 MiB
Writing library : XviD 1.1.0 Beta2 (UTC 2005-04-04)

Audio
Format : MPEG Audio
Format version : Version 1
Format profile : Layer 3
Codec ID : 55
Codec ID/Hint : MP3
Duration : 1h 31mn
Bit rate mode : Constant
Bit rate : 128 Kbps
Minimum bit rate : 128 Kbps
Channel(s) : 2 channels
Sampling rate : 48.0 KHz
Resolution : 16 bits
Stream size : 84.0 MiB
Writing library : LAME3.96r
Encoding settings : CBR


Link: http://www.imdb.com/title/tt0104609/

related torrents

Torrent name

health leech seeds Size

Kickboxer 3 The Art Of War

0 1 700.00 MB 0
 


comments (0)

Main Menu