Action

KickBoxer 2 The Road Back 1991 mazysnuthouse org

  • Download 5x Faster
  • Download torrent
  • Direct Download
  • Rate this torrent +  |  -
KickBoxer 2 The Road Back 1991 mazysnuthouse org

Free and Direct Download with Usenet 300GB+ free


Torrent info

Name:KickBoxer 2 The Road Back 1991 mazysnuthouse org

Total Size: 700.20 MB

Magnet: Magnet Link

Seeds: 0

Leechers: 0

Stream: Watch Online @ Movie4u

Last Updated: 2015-09-22 20:00:01 (Update Now)

Torrent added: 2009-08-22 03:11:51




Torrent Files List


Kickboxer 2 - The Road Back.sfv (Size: 700.20 MB) (Files: 51)

 Kickboxer 2 - The Road Back.sfv

6.17 KB

 Kickboxer 2 - The Road Back.part49.rar

13.55 MB

 Kickboxer 2 - The Road Back.part48.rar

14.31 MB

 Kickboxer 2 - The Road Back.part47.rar

14.31 MB

 Kickboxer 2 - The Road Back.part46.rar

14.31 MB

 Kickboxer 2 - The Road Back.part45.rar

14.31 MB

 Kickboxer 2 - The Road Back.part44.rar

14.31 MB

 Kickboxer 2 - The Road Back.part43.rar

14.31 MB

 Kickboxer 2 - The Road Back.part42.rar

14.31 MB

 Kickboxer 2 - The Road Back.part41.rar

14.31 MB

 Kickboxer 2 - The Road Back.part40.rar

14.31 MB

 Kickboxer 2 - The Road Back.part39.rar

14.31 MB

 Kickboxer 2 - The Road Back.part38.rar

14.31 MB

 Kickboxer 2 - The Road Back.part37.rar

14.31 MB

 Kickboxer 2 - The Road Back.part36.rar

14.31 MB

 Kickboxer 2 - The Road Back.part35.rar

14.31 MB

 Kickboxer 2 - The Road Back.part34.rar

14.31 MB

 Kickboxer 2 - The Road Back.part33.rar

14.31 MB

 Kickboxer 2 - The Road Back.part32.rar

14.31 MB

 Kickboxer 2 - The Road Back.part31.rar

14.31 MB

 Kickboxer 2 - The Road Back.part30.rar

14.31 MB

 Kickboxer 2 - The Road Back.part29.rar

14.31 MB

 Kickboxer 2 - The Road Back.part28.rar

14.31 MB

 Kickboxer 2 - The Road Back.part27.rar

14.31 MB

 Kickboxer 2 - The Road Back.part26.rar

14.31 MB

 Kickboxer 2 - The Road Back.part25.rar

14.31 MB

 Kickboxer 2 - The Road Back.part24.rar

14.31 MB

 Kickboxer 2 - The Road Back.part23.rar

14.31 MB

 Kickboxer 2 - The Road Back.part22.rar

14.31 MB

 Kickboxer 2 - The Road Back.part21.rar

14.31 MB

 Kickboxer 2 - The Road Back.part20.rar

14.31 MB

 Kickboxer 2 - The Road Back.part19.rar

14.31 MB

 Kickboxer 2 - The Road Back.part18.rar

14.31 MB

 Kickboxer 2 - The Road Back.part17.rar

14.31 MB

 Kickboxer 2 - The Road Back.part16.rar

14.31 MB

 Kickboxer 2 - The Road Back.part15.rar

14.31 MB

 Kickboxer 2 - The Road Back.part14.rar

14.31 MB

 Kickboxer 2 - The Road Back.part13.rar

14.31 MB

 Kickboxer 2 - The Road Back.part12.rar

14.31 MB

 Kickboxer 2 - The Road Back.part11.rar

14.31 MB

 Kickboxer 2 - The Road Back.part10.rar

14.31 MB

 Kickboxer 2 - The Road Back.part09.rar

14.31 MB

 Kickboxer 2 - The Road Back.part08.rar

14.31 MB

 Kickboxer 2 - The Road Back.part07.rar

14.31 MB

 Kickboxer 2 - The Road Back.part06.rar

14.31 MB

 Kickboxer 2 - The Road Back.part05.rar

14.31 MB

 Kickboxer 2 - The Road Back.part04.rar

14.31 MB

 Kickboxer 2 - The Road Back.part03.rar

14.31 MB

 Kickboxer 2 - The Road Back.part02.rar

14.31 MB

 Kickboxer 2 - The Road Back.part01.rar

14.31 MB

 Kickboxer 2 - The Road Back.nfo

1.66 KB
 

tracker

leech seeds
 

Torrent description

General
Complete name : C:Torrent CreationKickBoxer 2 - The Road Back 1991Kickboxer 2 - The Road Back.avi
Format : AVI
Format/Info : Audio Video Interleave
File size : 700 MiB
Duration : 1h 26mn
Overal bit rate : 1129 Kbps
Writing application : Nandub v1.0rc2
Writing library : Nandub build 1852/release

Video
Format : MPEG-4 Visual
Codec ID : DIV3
Codec ID/Hint : DivX 3 Low
Duration : 1h 26mn
Bit rate : 943 Kbps
Width : 480 pixels
Height : 352 pixels
Display aspect ratio : 4/3
Frame rate : 25.000 fps
Resolution : 24 bits
Bits/(Pixel*Frame) : 0.223
Stream size : 585 MiB

Audio
Format : MPEG Audio
Format version : Version 1
Format profile : Layer 3
Codec ID : 55
Codec ID/Hint : MP3
Duration : 1h 26mn
Bit rate mode : Variable
Bit rate : 173 Kbps
Minimum bit rate : 128 Kbps
Channel(s) : 2 channels
Sampling rate : 48.0 KHz
Resolution : 16 bits
Stream size : 107 MiB
Writing library : LAME3.92
Encoding settings : VBR (mtrh)

related torrents

Torrent name

health leech seeds Size
 

comments (0)

Main Menu