Action

KickBoxer 1 1989 DvdRip Divx[

  • Download 5x Faster
  • Download torrent
  • Direct Download
  • Rate this torrent +  |  -
KickBoxer 1 1989 DvdRip Divx[

Free and Direct Download with Usenet.nl 300GB+ free


Torrent info

Name:KickBoxer 1 1989 DvdRip Divx[

Total Size: 692.49 MB

Magnet: Magnet Link

Seeds: 0

Leechers: 0

Stream: Watch Online @ Movie4u

Last Updated: 2010-09-28 21:34:46 (Update Now)

Torrent added: 2009-08-22 03:11:42





Torrent Files List


Kickboxer 1.sfv (Size: 692.49 MB) (Files: 51)

 Kickboxer 1.sfv

4.61 KB

 Kickboxer 1.part49.rar

5.84 MB

 Kickboxer 1.part48.rar

14.31 MB

 Kickboxer 1.part47.rar

14.31 MB

 Kickboxer 1.part46.rar

14.31 MB

 Kickboxer 1.part45.rar

14.31 MB

 Kickboxer 1.part44.rar

14.31 MB

 Kickboxer 1.part43.rar

14.31 MB

 Kickboxer 1.part42.rar

14.31 MB

 Kickboxer 1.part41.rar

14.31 MB

 Kickboxer 1.part40.rar

14.31 MB

 Kickboxer 1.part39.rar

14.31 MB

 Kickboxer 1.part38.rar

14.31 MB

 Kickboxer 1.part37.rar

14.31 MB

 Kickboxer 1.part36.rar

14.31 MB

 Kickboxer 1.part35.rar

14.31 MB

 Kickboxer 1.part34.rar

14.31 MB

 Kickboxer 1.part33.rar

14.31 MB

 Kickboxer 1.part32.rar

14.31 MB

 Kickboxer 1.part31.rar

14.31 MB

 Kickboxer 1.part30.rar

14.31 MB

 Kickboxer 1.part29.rar

14.31 MB

 Kickboxer 1.part28.rar

14.31 MB

 Kickboxer 1.part27.rar

14.31 MB

 Kickboxer 1.part26.rar

14.31 MB

 Kickboxer 1.part25.rar

14.31 MB

 Kickboxer 1.part24.rar

14.31 MB

 Kickboxer 1.part23.rar

14.31 MB

 Kickboxer 1.part22.rar

14.31 MB

 Kickboxer 1.part21.rar

14.31 MB

 Kickboxer 1.part20.rar

14.31 MB

 Kickboxer 1.part19.rar

14.31 MB

 Kickboxer 1.part18.rar

14.31 MB

 Kickboxer 1.part17.rar

14.31 MB

 Kickboxer 1.part16.rar

14.31 MB

 Kickboxer 1.part15.rar

14.31 MB

 Kickboxer 1.part14.rar

14.31 MB

 Kickboxer 1.part13.rar

14.31 MB

 Kickboxer 1.part12.rar

14.31 MB

 Kickboxer 1.part11.rar

14.31 MB

 Kickboxer 1.part10.rar

14.31 MB

 Kickboxer 1.part09.rar

14.31 MB

 Kickboxer 1.part08.rar

14.31 MB

 Kickboxer 1.part07.rar

14.31 MB

 Kickboxer 1.part06.rar

14.31 MB

 Kickboxer 1.part05.rar

14.31 MB

 Kickboxer 1.part04.rar

14.31 MB

 Kickboxer 1.part03.rar

14.31 MB

 Kickboxer 1.part02.rar

14.31 MB

 Kickboxer 1.part01.rar

14.31 MB

 Kickboxer 1.nfo

1.56 KB
 

Announce URL: http://tracker.ilovetorrents.com/announce.php

Torrent description

General
Complete name : C:\Torrent Creation\KickBoxer 1 - 1989\Kickboxer 1.avi
Format : AVI
Format/Info : Audio Video Interleave
File size : 692 MiB
Duration : 1h 37mn
Overal bit rate : 994 Kbps
Writing application : Nandub v1.0rc2
Writing library : Nandub build 1853/release

Video
Format : MPEG-4 Visual
Codec ID : DIV3
Codec ID/Hint : DivX 3 Low
Duration : 1h 37mn
Bit rate : 847 Kbps
Width : 576 pixels
Height : 320 pixels
Display aspect ratio : 16/9
Frame rate : 23.976 fps
Resolution : 24 bits
Bits/(Pixel*Frame) : 0.192
Stream size : 590 MiB

Audio
Format : MPEG Audio
Format version : Version 1
Format profile : Layer 3
Codec ID : 55
Codec ID/Hint : MP3
Duration : 1h 37mn
Bit rate mode : Constant
Bit rate : 32.0 Kbps
Channel(s) : 2 channels
Sampling rate : 48.0 KHz
Resolution : 16 bits
Stream size : 93.8 MiB
Writing library : LAME3.88 (alpha 1)


Link: http://www.imdb.com/title/tt0097659/

related torrents

Torrent name

health leech seeds Size

Kickboxer 1989 dvd rip

1 18 703.00 MB 0
 

comments (0)

Main Menu