Action

Iron Man 2008 MP4 Eng M333 FLAWL3SS

  • Download 5x Faster
  • Download torrent
  • Direct Download
  • Rate this torrent +  |  -
Iron Man 2008 MP4 Eng M333 FLAWL3SS

Free and Direct Download with Usenet.nl 300GB+ free


Torrent info

Name:Iron Man 2008 MP4 Eng M333 FLAWL3SS

Total Size: 348.50 MB

Magnet: Magnet Link

Seeds: 0

Leechers: 0

Stream: Watch Online @ Movie4u

Last Updated: 2012-05-05 17:11:23 (Update Now)

Torrent added: 2009-08-22 02:44:22





Torrent Files List


Torrent downloaded from Demonoid.com.txt (Size: 348.50 MB) (Files: 5)

 Torrent downloaded from Demonoid.com.txt

0.05 KB

 nfo.txt

2.82 KB

 iron-man-a.jpg

90.85 KB

 Find us.jpg

218.31 KB

 Iron Man 2008 MP4 M333-FLAWL3SS.m4v

348.20 MB
 

Announce URL: http://inferno.demonoid.com:3389/announce

Torrent description

General
Complete name : Iron Man 2008 MP4 M333-FLAWL3SS.m4v
Format : MPEG-4
Format profile : Base Media
Codec ID : isom
File size : 348 MiB
Duration : 1h 52mn
Overal bit rate : 433 Kbps
Movie name : Iron Man 2008 MP4 M333-FLAWL3SS
Album : I M
Encoded date : UTC 2006-03-01 14:56:37
Tagged date : UTC 2006-03-01 14:56:37
Writing application : M333

Video
Format : AVC
Format/Info : Advanced Video Codec
Format profile : [email protected]
Format settings, CABAC : No
Format settings, ReFrames : 1 frame
Codec ID : avc1
Duration : 1h 52mn
Bit rate mode : Variable
Bit rate : 310 Kbps
Width : 320 pixels
Height : 146 pixels
Display aspect ratio : 2.2
Frame rate mode : Constant
Frame rate : 29.970 fps
Colorimetry : 4:2:0
Scan type : Progressive
Bits/(Pixel*Frame) : 0.222
Stream size : 249 MiB
Encoded date : UTC 2006-03-01 14:56:37
Tagged date : UTC 2006-03-01 14:56:37

Audio
Format : AAC
Format/Info : Advanced Audio Codec
Format version : Version 4
Format profile : LC
Format settings, SBR : No
Codec ID : 40
Duration : 1h 52mn
Bit rate mode : Variable
Bit rate : 118 Kbps
Channel(s) : 2 channels
Channel positions : L R
Sampling rate : 48.0 KHz
Resolution : 16 bits
Stream size : 94.8 MiB
Encoded date : UTC 2006-03-01 14:56:37
Tagged date : UTC 2006-03-01 14:56:37

http://www.imdb.com/title/tt0371746/

Trackers
http://tpb.tracker.thepiratebay.org:80/announce

http://denis.stalker.h3q.com:6969/announce

http://open.tracker.thepiratebay.org/announce

http://www.torrentsnipe.info:2701/announce

http://open.tracker.thepiratebay.org/announce

http://vip.tracker.thepiratebay.org:80/announce

http://inferno.demonoid.com:3389/announce
Screens
[Iron Man 2008 MP4 Eng M333 FLAWL3SS preview 0]
[Iron Man 2008 MP4 Eng M333 FLAWL3SS preview 1]
[Iron Man 2008 MP4 Eng M333 FLAWL3SS preview 2]
[Iron Man 2008 MP4 Eng M333 FLAWL3SS preview 3]
[Iron Man 2008 MP4 Eng M333 FLAWL3SS preview 4]



Hash 8B6A488AC752A1A78F71588A8994FAC5228216B7

related torrents

Torrent name

health leech seeds Size
 

comments (0)

Main Menu