Action

Ip Man 2008 DVDRIP ZEKTORM

  • Download 5x Faster
  • Download torrent
  • Direct Download
  • Rate this torrent +  |  -
Ip Man 2008 DVDRIP ZEKTORM

Anonymous and free Direct Download 300GB+


Torrent info

Name:Ip Man 2008 DVDRIP ZEKTORM

Total Size: 706.49 MB

Magnet: Magnet Link

Seeds: 13

Leechers: 7

Stream: Watch Online @ Movie4u

Last Updated: 2011-01-01 11:16:49 (Update Now)

Torrent added: 2009-08-22 02:43:58



VPN For Torrents

Torrent Files List


Subs (Size: 706.49 MB) (Files: 4)

 Subs

  Ip.Man.2008.DVDRIP-ZEKTORM.sub

6.08 MB

  Ip.Man.2008.DVDRIP-ZEKTORM.idx

90.02 KB

 READ.hlp

12.64 KB

 Ip.Man.2008.DVDRIP-ZEKTORM.mp4

700.31 MB
 

Announce URL: http://eztv.tracker.thepiratebay.org:80/announce

Torrent description

Title : Ip Man
Year : 2008
Genre : Action | Biography | History
iMDB Rate : User Rating: 8.1/10 2,433 votes
iMDB URL : http://www.imdb.com/title/tt1220719/

Complete name : Ip.Man.2008.DVDRIP-ZEKTORM.mp4
Format : MPEG-4
Format profile : Base Media
Codec ID : isom
File size : 700 MiB
Duration : 1h 46mn
Overall bit rate : 920 Kbps
Subtitles : English, Chinese (Format: VobSub)
Source : DVD NTSC
Encoded date : UTC 2009-02-16 15:47:00

Video
Format : AVC
Format/Info : Advanced Video Codec
Format profile : [email protected]
Format settings, CABAC : Yes
Format settings, ReFrames : 10 frames
Codec ID : avc1
Codec ID/Info : Advanced Video Coding
Duration : 1h 46mn
Bit rate mode : Variable
Bit rate : 834 Kbps
Maximum bit rate : 4169 Kbps
Width : 704 pixels
Height : 352 pixels
Display aspect ratio : 2.424
Frame rate mode : Constant
Frame rate : 23.976 fps
Resolution : 24 bits
Colorimetry : 4:2:0
Scan type : Progressive
Bits/(Pixel*Frame) : 0.140
Stream size : 635 MiB (91%)
Title : Video
Writing library : x264 core 60 r900 a9af942

Audio
Format : AAC
Format/Info : Advanced Audio Codec
Format version : Version 4
Format profile : LC
Format settings, SBR : Yes
Format settings, PS : No
Codec ID : 40
Duration : 1h 46mn
Bit rate mode : Variable
Bit rate : 82.7 Kbps
Maximum bit rate : 120 Kbps
Channel(s) : 2 channels
Channel positions : L R
Sampling rate : 48.0 KHz
Resolution : 16 bits
Stream size : 63.0 MiB (9%)
Title : Chinese (Traditional)
Language : Chinese

Notes : Convert to DVD with Nero

related torrents

Torrent name

health leech seeds Size

Ip Man(2008) [ch4cal]

13 14 0.00 KB 0
 


comments (0)

Main Menu