Action

INTO THE [email protected] H 264 RIP

  • Download 5x Faster
  • Download torrent
  • Direct Download
  • Rate this torrent +  |  -

Torrent info

Name:INTO THE [email protected] H 264 RIP

Total Size: 691.61 MB

Magnet: Magnet Link

Seeds: 0

Leechers: 0

Stream: Watch Online @ Movie4u

Last Updated: 2015-09-08 10:36:22 (Update Now)

Torrent added: 2009-08-22 02:42:09





Torrent Files List


Torrent downloaded from Demonoid.com-1.txt (Size: 691.61 MB) (Files: 3)

 Torrent downloaded from Demonoid.com-1.txt

0.05 KB

 main movie.mp4

691.57 MB

 586751x.jpg

39.38 KB
 

tracker

leech seeds
 

Torrent description

Action superstar Steven Seagal is back in this nonstop thrill ride! When the Governor of Tokyo is murdered, it falls on ex-CIA agent Travis Hunter to track down the responsible terrorists. However, the plot to kill the Governor is only the beginning of a web of corruption and violence. Hunter discovers a plan by a rising Yakuza leader to build an enormous drug-dealing network with the Chinese Mafia. With time running out and the Yakuza determined to see their plan through, Hunter must thwart the operation - and get out alive.

Format : MPEG-4
Format profile : Base Media / Version 2
Codec ID : mp42
File size : 692 MiB
Duration : 1h 32mn
Overall bit rate : 1 041 Kbps
Encoded date : UTC 2009-04-20 03:51:43
Tagged date : UTC 2009-04-20 08:38:08
Writing application : HandBrake 0.9.3 2008112300

Video
Format : AVC
Format/Info : Advanced Video Codec
Format profile : [email protected]
Format settings, CABAC : Yes
Format settings, ReFrames : 3 frames
Codec ID : avc1
Codec ID/Info : Advanced Video Coding
Duration : 1h 32mn
Bit rate mode : Variable
Bit rate : 877 Kbps
Nominal bit rate : 890 Kbps
Width : 720 pixels
Height : 548 pixels
Display aspect ratio : 1.869
Frame rate mode : Variable
Frame rate : 25.000 fps
Minimum frame rate : 12.500 fps
Maximum frame rate : 26.287 fps
Resolution : 24 bits
Colorimetry : 4:2:0
Scan type : Progressive
Bits/(Pixel*Frame) : 0.089
Stream size : 583 MiB (84%)
Writing library : x264 core 65
: UTC 2009-04-20 08:38:08

Audio
Format : AAC
Format/Info : Advanced Audio Codec
Format version : Version 4
Format profile : LC
Format settings, SBR : No
Codec ID : 40
Duration : 1h 32mn
Bit rate mode : Variable
Bit rate : 160 Kbps
Maximum bit rate : 212 Kbps
Channel(s) : 2 channels
Channel positions : L R
Sampling rate : 48.0 KHz
Resolution : 16 bits
Stream size : 106 MiB (15%)
Language : English
Encoded date : UTC 2009-04-20 03:51:43
Tagged date : UTC 2009-04-20 08:38:02

related torrents

Torrent name

health leech seeds Size
 

comments (0)

Main Menu