Other

OLYMBIAKOS 7 & 1 Protathlimata Original DVDRip ~ DVD 01 from 08

  • Download 5x Faster
  • Download torrent
  • Direct Download
  • Rate this torrent +  |  -
OLYMBIAKOS 7 & 1 Protathlimata Original DVDRip ~ DVD 01 from 08

Free and Direct Download with Usenet 300GB+ free


Torrent info

Name:OLYMBIAKOS 7 & 1 Protathlimata Original DVDRip ~ DVD 01 from 08

Total Size: 692.78 MB

Magnet: Magnet Link

Seeds: 2

Leechers: 3

Stream: Watch Online @ Movie4u

Last Updated: 2010-05-29 08:52:51 (Update Now)

Torrent added: 2009-08-22 02:35:59




Torrent Files List


04.jpg (Size: 692.78 MB) (Files: 12)

 04.jpg

23.50 KB

 03.jpg

25.01 KB

 01.jpg

29.06 KB

 05.jpg

31.44 KB

 02.jpg

57.87 KB

 Front small.jpg

88.33 KB

 poster.png

289.25 KB

 DVD 01.jpg

1.17 MB

 Front Cover.jpg

1.46 MB

 Back Cover.jpg

1.69 MB

 1996-97_-_B_Gyros.mp4

331.95 MB

 1996-97_-_A_Gyros.mp4

355.99 MB
 

Announce URL: http://greekadiko.biz:2710/753a2cdee4174c562ce74fd5c85034f9/announce

Torrent description

Image => OLYMBIAKOS   7 & 1 Protathlimata   Original DVDRip ~ DVD 01 from 08   preview 0

The original DVD Box released by Olympiakos.
This offer include the 1st DVD of the total 8 DVD Box. Πρωτ?θλημα 1996-97.
All other DVD's will be posted here sortly.
Container: .mkv
Language: Greek/Ellinika


Dedicated to all Olympiakos Supporters!!!



1st Round:

General
Complete name : 1996-97_-_A_Gyros.mp4
Format : MPEG-4
Format profile : Base Media
Codec ID : isom
File size : 356 MiB
Duration : 44mn 21s
Overall bit rate : 1 122 Kbps
Encoded date : UTC 2009-08-20 06:05:49
Tagged date : UTC 2009-08-20 06:05:49

Video
ID : 1
Format : AVC
Format/Info : Advanced Video Codec
Format profile : [email protected]
Format settings, CABAC : Yes
Format settings, ReFrames : 4 frames
Codec ID : avc1
Codec ID/Info : Advanced Video Coding
Duration : 44mn 21s
Bit rate mode : Variable
Bit rate : 1 055 Kbps
Maximum bit rate : 2 441 Kbps
Width : 720 pixels
Height : 544 pixels
Display aspect ratio : 4/3
Frame rate mode : Constant
Frame rate : 25.000 fps
Resolution : 24 bits
Colorimetry : 4:2:0
Scan type : Progressive
Bits/(Pixel*Frame) : 0.108
Stream size : 335 MiB (94%)
Writing library : x264 core 68 r1183M f21daff
Encoding settings : cabac=1 / ref=4 / deblock=1:-1:-1 / analyse=0x3:0x113 / me=umh / subme=7 / psy_rd=1.0:0.0 / mixed_ref=1 / me_range=16 / chroma_me=1 / trellis=2 / 8x8dct=1 / cqm=0 / deadzone=21,11 / chroma_qp_offset=-2 / threads=6 / nr=0 / decimate=1 / mbaff=0 / bframes=3 / b_pyramid=0 / b_adapt=2 / b_bias=0 / direct=3 / wpredb=1 / keyint=250 / keyint_min=25 / scenecut=40 / rc=2pass / bitrate=1055 / ratetol=1.0 / qcomp=0.60 / qpmin=10 / qpmax=51 / qpstep=4 / cplxblur=20.0 / qblur=0.5 / vbv_maxrate=50000 / vbv_bufsize=50000 / ip_ratio=1.40 / pb_ratio=1.30 / aq=1:1.00
Encoded date : UTC 2009-08-20 06:05:49
Tagged date : UTC 2009-08-20 06:06:00

Audio
ID : 2
Format : AAC
Format/Info : Advanced Audio Codec
Format version : Version 4
Format profile : LC
Format settings, SBR : Yes
Format settings, PS : No
Codec ID : 40
Duration : 44mn 21s
Bit rate mode : Variable
Bit rate : 64.0 Kbps
Maximum bit rate : 83.0 Kbps
Channel(s) : 2 channels
Channel positions : L R
Sampling rate : 48.0 KHz
Resolution : 16 bits
Stream size : 20.3 MiB (6%)
Encoded date : UTC 2009-08-20 06:05:59
Tagged date : UTC 2009-08-20 06:06:00



OLYMBIAKOS   7 & 1 Protathlimata   Original DVDRip ~ DVD 01 from 08   preview 1

OLYMBIAKOS   7 & 1 Protathlimata   Original DVDRip ~ DVD 01 from 08   preview 2




2nd Round:

General
Complete name : 1996-97_-_B_Gyros.mp4
Format : MPEG-4
Format profile : Base Media
Codec ID : isom
File size : 332 MiB
Duration : 57mn 39s
Overall bit rate : 805 Kbps
Encoded date : UTC 2009-08-20 03:27:36
Tagged date : UTC 2009-08-20 03:27:36

Video
ID : 1
Format : AVC
Format/Info : Advanced Video Codec
Format profile : [email protected]
Format settings, CABAC : Yes
Format settings, ReFrames : 3 frames
Codec ID : avc1
Codec ID/Info : Advanced Video Coding
Duration : 57mn 39s
Bit rate mode : Variable
Bit rate : 740 Kbps
Maximum bit rate : 1 679 Kbps
Width : 720 pixels
Height : 544 pixels
Display aspect ratio : 4/3
Frame rate mode : Constant
Frame rate : 25.000 fps
Resolution : 24 bits
Colorimetry : 4:2:0
Scan type : Progressive
Bits/(Pixel*Frame) : 0.076
Stream size : 304 MiB (92%)
Writing library : x264 core 68 r1183M f21daff
Encoding settings : cabac=1 / ref=3 / deblock=1:-1:-2 / analyse=0x3:0x113 / me=umh / subme=7 / psy_rd=1.0:0.0 / mixed_ref=1 / me_range=16 / chroma_me=1 / trellis=2 / 8x8dct=1 / cqm=0 / deadzone=21,11 / chroma_qp_offset=-2 / threads=6 / nr=0 / decimate=1 / mbaff=0 / bframes=2 / b_pyramid=0 / b_adapt=2 / b_bias=0 / direct=3 / wpredb=1 / keyint=14 / keyint_min=2 / scenecut=40 / rc=2pass / bitrate=740 / ratetol=1.0 / qcomp=0.50 / qpmin=10 / qpmax=51 / qpstep=4 / cplxblur=20.0 / qblur=0.5 / vbv_maxrate=24000 / vbv_bufsize=14475 / ip_ratio=1.10 / pb_ratio=1.10 / aq=1:1.00
Encoded date : UTC 2009-08-20 03:27:36
Tagged date : UTC 2009-08-20 03:27:51

Audio
ID : 2
Format : AAC
Format/Info : Advanced Audio Codec
Format version : Version 4
Format profile : LC
Format settings, SBR : Yes
Format settings, PS : No
Codec ID : 40
Duration : 57mn 39s
Bit rate mode : Variable
Bit rate : 64.0 Kbps
Maximum bit rate : 73.4 Kbps
Channel(s) : 2 channels
Channel positions : L R
Sampling rate : 48.0 KHz
Resolution : 16 bits
Stream size : 26.4 MiB (8%)
Encoded date : UTC 2009-08-20 03:27:50
Tagged date : UTC 2009-08-20 03:27:51



OLYMBIAKOS   7 & 1 Protathlimata   Original DVDRip ~ DVD 01 from 08   preview 3

OLYMBIAKOS   7 & 1 Protathlimata   Original DVDRip ~ DVD 01 from 08   preview 4

RESPECT YOUR UPLOADERS BY SEEDING!
WHAT YOU SEED IS WHAT YOU GONNA GET!

related torrents

Torrent name

health leech seeds Size
 

comments (0)

Main Menu