Action

Transf0rmers 2 Revenge 0f The Fallen 2009 PROPER TS XviD V3 Just4fun

  • Download 5x Faster
  • Download torrent
  • Direct Download
  • Rate this torrent +  |  -
Transf0rmers 2 Revenge 0f The Fallen 2009 PROPER TS XviD V3 Just4fun

Free and Direct Download with Usenet.nl 300GB+ free


Torrent info

Name:Transf0rmers 2 Revenge 0f The Fallen 2009 PROPER TS XviD V3 Just4fun

Total Size: 686.19 MB

Magnet: Magnet Link

Seeds: 3

Leechers: 59

Stream: Watch Online @ Movie4u

Last Updated: 0000-00-00 00:00:00 (Update Now)

Torrent added: 2009-08-22 02:33:51





Torrent Files List


Torrent downloaded from Demonoid.com.txt (Size: 686.19 MB) (Files: 3)

 Torrent downloaded from Demonoid.com.txt

0.05 KB

 transformers2revengeofthefallenxlg_poster.jpg

72.03 KB

 Transformers.Revenge.Of.The.Fallen.(2009).avi

686.12 MB
 

Announce URL: http://tracker.openbittorrent.com/announce

Torrent description

Transformers.2.Revenge.Of.The.Fallen.2009.PROPER.TS.XviD.V3-Just4fun

Ok here we go again on a third dose of transformers.
Sams happy hour oh maybe not lol anyways better video and audio.
Check sample.


General
Complete name : C:\RE-ENCODES_TO_DO\j4f-t2v3.avi
Format : AVI
Format/Info : Audio Video Interleave
File size : 700 MiB
Duration : 2h 21mn
Overall bit rate : 690 Kbps
Writing application : VirtualDubMod 1.5.10.2 (build 2542/release)
Writing library : VirtualDubMod build 2542/release

Video
ID : 0
Format : MPEG-4 Visual
Format profile : Advanced [email protected]
Format settings, BVOP : Yes
Format settings, QPel : No
Format settings, GMC : No warppoints
Format settings, Matrix : Default (H.263)
Muxing mode : Packed bitstream
Codec ID : XVID
Codec ID/Hint : XviD
Duration : 2h 21mn
Bit rate : 584 Kbps
Width : 640 pixels
Height : 272 pixels
Display aspect ratio : 2.35
Frame rate : 25.000 fps
Resolution : 24 bits
Colorimetry : 4:2:0
Scan type : Progressive
Bits/(Pixel*Frame) : 0.134
Stream size : 592 MiB (85%)
Writing library : XviD 1.2.1 (UTC 2008-12-04)

Audio
ID : 1
Format : MPEG Audio
Format version : Version 1
Format profile : Layer 3
Codec ID : 55
Codec ID/Hint : MP3
Duration : 2h 21mn
Bit rate mode : Constant
Bit rate : 96.0 Kbps
Channel(s) : 2 channels
Sampling rate : 32.0 KHz
Resolution : 16 bits
Stream size : 97.4 MiB (14%)
Alignment : Aligned on interleaves
Interleave, duration : 40 ms (1.00 video frame)
Interleave, preload duration : 504 ms
Writing library : LAME3.98r


Enjoy

Weblink: http://www.imdb.com/title/tt1055369/

related torrents

Torrent name

health leech seeds Size
 

comments (0)

Main Menu